<?xml version="1.0" standalone="no"?>
<!DOCTYPE svg PUBLIC "-//W3C//DTD SVG 1.1//EN" "http://www.w3.org/Graphics/SVG/1.1/DTD/svg11.dtd" >
<svg xmlns="http://www.w3.org/2000/svg" xmlns:xlink="http://www.w3.org/1999/xlink" version="1.1">
<metadata></metadata>
<defs>
<font id="f37_moonregular_it" horiz-adv-x="1261" >
<font-face units-per-em="2048" ascent="1638" descent="-410" />
<missing-glyph horiz-adv-x="468" />
<glyph unicode="&#xfb01;" horiz-adv-x="1110" d="M209 815l29 158h145l4 33q18 112 59.5 191t103.5 123t133.5 63.5t160.5 19.5q26 0 49 -2l-29 -158q-18 2 -45 2q-112 0 -179.5 -54t-88.5 -185l-4 -33h586l-172 -973h-164l143 815h-422l-143 -815h-164l143 815h-145zM993 1171l33 185h182l-32 -185h-183z" />
<glyph unicode="&#xfb02;" horiz-adv-x="1110" d="M209 815l29 158h145l4 33q18 112 59.5 191t103.5 123t133.5 63.5t160.5 19.5q26 0 49 -2l-29 -158q-18 2 -45 2q-112 0 -179.5 -54t-88.5 -185l-4 -33h420l71 409h164l-244 -1382h-163l143 815h-420l-143 -815h-164l143 815h-145z" />
<glyph horiz-adv-x="0" />
<glyph horiz-adv-x="682" />
<glyph unicode=" "  horiz-adv-x="468" />
<glyph unicode="&#x09;" horiz-adv-x="468" />
<glyph unicode="&#xa0;" horiz-adv-x="468" />
<glyph unicode="!" horiz-adv-x="485" d="M152 0l32 184h183l-33 -184h-182zM264 393l51 488l78 448h166l-78 -448l-121 -488h-96z" />
<glyph unicode="&#x22;" horiz-adv-x="661" d="M303 999l37 351h170l-88 -351h-119zM594 999l35 351h170l-88 -351h-117z" />
<glyph unicode="#" horiz-adv-x="1124" d="M147 406l25 141h217l96 250h-188l25 141h219l104 264h131l-104 -264h229l105 264h131l-105 -264h182l-24 -141h-213l-96 -250h184l-25 -141h-215l-104 -265h-131l104 265h-229l-105 -265h-131l105 265h-187zM520 547h230l96 250h-230z" />
<glyph unicode="$" horiz-adv-x="1081" d="M98 205l135 100q83 -138 269 -168l88 498q-56 20 -94.5 36t-83.5 45t-72 61.5t-45.5 82t-18.5 109.5q0 160 120.5 263.5t318.5 115.5l39 215h141l-39 -220q234 -32 336 -198l-127 -103q-39 60 -100 100t-136 52l-77 -446q56 -22 96 -41t85.5 -51t73.5 -67.5t47 -87.5 t19 -114q0 -186 -126 -291.5t-333 -113.5l-36 -213h-142l39 219q-272 32 -377 217zM442 979q0 -62 45 -102.5t131 -77.5l70 397q-114 -15 -180 -72.5t-66 -144.5zM643 133q127 10 196.5 74.5t69.5 167.5q0 80 -48.5 128t-137.5 83z" />
<glyph unicode="%" horiz-adv-x="1642" d="M225 905q0 183 112.5 308.5t276.5 125.5q126 0 202.5 -84t76.5 -217q0 -112 -48.5 -209.5t-139 -157t-201.5 -59.5q-124 0 -201.5 82.5t-77.5 210.5zM356 922q0 -84 45 -136t119 -51q97 -2 169.5 87t72.5 210q0 85 -44.5 136t-119.5 51q-97 0 -169.5 -88.5t-72.5 -208.5z M426 0l881 1329h143l-881 -1329h-143zM983 285q0 183 111.5 308.5t275.5 125.5q126 0 202.5 -83.5t76.5 -215.5q0 -174 -110.5 -300t-278.5 -126q-124 0 -200.5 81.5t-76.5 209.5zM1112 301q0 -84 45 -135.5t119 -50.5q97 -2 169.5 87t72.5 210q0 85 -44 135.5t-118 50.5 q-98 0 -171 -88.5t-73 -208.5z" />
<glyph unicode="&#x26;" horiz-adv-x="1236" d="M152 324q0 136 78.5 236.5t218.5 141.5q-72 39 -111 102.5t-39 145.5q0 180 136 290t360 110q83 0 163 -9l-28 -157q-82 10 -146 10q-141 0 -228 -68t-87 -178q0 -78 48.5 -124t148.5 -46h295l38 223h160l-39 -223h178l-26 -155h-178l-82 -467h176l-27 -156h-600 q-192 0 -300.5 87.5t-108.5 236.5zM328 352q0 -94 65.5 -145t194.5 -51h264l82 467h-301q-135 0 -220 -77t-85 -194z" />
<glyph unicode="'" horiz-adv-x="372" d="M303 999l37 351h170l-88 -351h-119z" />
<glyph unicode="(" horiz-adv-x="632" d="M164 367q0 309 153 569.5t439 419.5l71 -127q-74 -49 -140.5 -106.5t-132.5 -138t-113 -169.5t-76 -203t-29 -235q0 -348 239 -567l-110 -123q-301 283 -301 680z" />
<glyph unicode=")" horiz-adv-x="632" d="M-10 -186q94 62 175.5 140t155.5 183.5t117 242t43 286.5q0 345 -239 567l110 123q299 -281 299 -680q0 -309 -152.5 -569.5t-437.5 -419.5z" />
<glyph unicode="*" horiz-adv-x="724" d="M256 958l209 89l-174 92l78 100l145 -115l21 203h120l-53 -209l191 119l47 -104l-199 -91l164 -86l-74 -100l-153 119l-21 -211h-123l49 197l-180 -109z" />
<glyph unicode="+" d="M254 549l29 156h395l70 395h153l-70 -395h398l-29 -156h-395l-70 -395h-153l69 395h-397z" />
<glyph unicode="," horiz-adv-x="405" d="M53 -180l109 368h174l-160 -368h-123z" />
<glyph unicode="-" horiz-adv-x="831" d="M207 479l26 152h588l-24 -152h-590z" />
<glyph unicode="." horiz-adv-x="438" d="M121 0l35 195h196l-35 -195h-196z" />
<glyph unicode="/" horiz-adv-x="718" d="M61 0l664 1329h168l-666 -1329h-166z" />
<glyph unicode="0" horiz-adv-x="1177" d="M203 459l73 418q36 214 179 343.5t360 129.5q138 0 237 -62.5t140 -170.5t18 -240l-73 -424q-40 -227 -178.5 -349t-358.5 -122q-213 0 -323.5 136t-73.5 341zM371 465q-25 -147 41 -231t204 -84q141 0 235 83.5t120 231.5l69 399q26 147 -39.5 232.5t-203.5 85.5 q-142 0 -236 -84.5t-119 -233.5z" />
<glyph unicode="1" horiz-adv-x="614" d="M262 0l205 1163h-199l31 166h375l-234 -1329h-178z" />
<glyph unicode="2" horiz-adv-x="1042" d="M86 0l23 127l602 555q102 96 138 142q75 97 75 194q0 79 -53 125.5t-152 46.5q-117 0 -192 -69t-99 -208h-168q37 214 157.5 325.5t315.5 111.5q167 0 265 -87.5t98 -222.5q0 -42 -10 -84t-24 -76t-40.5 -73t-47 -65.5t-58 -64.5t-59 -58t-62.5 -58l-424 -393h614 l-31 -168h-868z" />
<glyph unicode="3" horiz-adv-x="1034" d="M109 276l149 80q22 -106 94 -163.5t191 -57.5q138 0 220.5 77.5t82.5 201.5q0 100 -67 156.5t-187 56.5h-62l-49 112l418 435h-573l28 155h787l-25 -135l-424 -434q148 -17 234 -107.5t86 -230.5q0 -201 -134 -320.5t-350 -119.5q-163 0 -276 76.5t-143 217.5z" />
<glyph unicode="4" horiz-adv-x="1130" d="M102 299l21 117l577 913h183l-549 -870h459l63 370h172l-63 -370h196l-28 -160h-197l-53 -299h-172l53 299h-662z" />
<glyph unicode="5" horiz-adv-x="1032" d="M117 281l153 79q43 -221 285 -221q135 0 219 81t84 210q0 103 -67 162t-187 59h-344l166 678h688l-29 -160h-532l-88 -358h176q172 0 278.5 -98t106.5 -262q0 -205 -133 -337t-350 -132q-171 0 -282.5 77t-143.5 222z" />
<glyph unicode="6" horiz-adv-x="1085" d="M156 365q0 106 41 197.5t122 189.5l469 577h197l-414 -502q67 25 138 25q172 0 283.5 -109t111.5 -268q0 -140 -69 -253t-190 -176.5t-270 -63.5q-183 0 -301 108.5t-118 274.5zM326 391q0 -111 74 -181.5t196 -70.5q141 0 239.5 92t98.5 230q0 108 -73.5 180t-192.5 72 q-146 0 -244 -92t-98 -230z" />
<glyph unicode="7" horiz-adv-x="987" d="M166 0l784 1163h-698l29 166h890l-24 -147l-785 -1182h-196z" />
<glyph unicode="8" horiz-adv-x="1130" d="M158 336q0 150 81.5 254t223.5 153q-52 32 -84.5 89.5t-32.5 125.5q0 171 124.5 281.5t320.5 110.5q157 0 252.5 -82t95.5 -211q0 -104 -55.5 -186.5t-157.5 -129.5q184 -90 184 -301q0 -198 -141.5 -328t-376.5 -130q-186 0 -310 100t-124 254zM328 365 q0 -101 78.5 -163.5t197.5 -62.5q150 0 244 79.5t94 211.5q0 104 -72.5 168t-193.5 64q-155 0 -251.5 -83t-96.5 -214zM512 969q0 -77 55.5 -122.5t143.5 -45.5q111 0 185.5 63.5t74.5 159.5q0 81 -55 128.5t-144 47.5q-110 0 -185 -65t-75 -166z" />
<glyph unicode="9" horiz-adv-x="1081" d="M211 854q0 213 151 353.5t377 140.5q183 0 301.5 -108.5t118.5 -274.5q0 -106 -41.5 -197.5t-122.5 -189.5l-469 -578h-196l413 502q-67 -25 -137 -25q-172 0 -283.5 109t-111.5 268zM381 868q0 -108 73.5 -180t192.5 -72q147 0 245.5 92t98.5 230q0 111 -75 181.5 t-197 70.5q-141 0 -239.5 -92t-98.5 -230z" />
<glyph unicode=":" horiz-adv-x="442" d="M123 0l33 195h196l-33 -195h-196zM252 729l33 195h196l-32 -195h-197z" />
<glyph unicode=";" horiz-adv-x="485" d="M90 -180l109 368h174l-162 -368h-121zM281 729l34 195h197l-35 -195h-196z" />
<glyph unicode="&#x3c;" d="M412 649l628 541l101 -117l-510 -434l348 -424l-129 -109z" />
<glyph unicode="=" d="M221 354l27 156h946l-27 -156h-946zM293 764l26 156h947l-27 -156h-946z" />
<glyph unicode="&#x3e;" horiz-adv-x="1267" d="M354 223l512 434l-348 424l129 109l436 -541l-628 -543z" />
<glyph unicode="?" horiz-adv-x="952" d="M221 922q35 208 160 318t311 110q166 0 261.5 -83t95.5 -216q0 -68 -21 -127t-56 -101.5t-77 -80t-86 -69.5t-81.5 -63t-65 -68t-35.5 -77l-13 -72h-159l12 78q8 50 35.5 96t64.5 81.5t79.5 69.5t83.5 68t74.5 69t54 80t20.5 95q0 76 -53 121t-148 45 q-113 0 -191.5 -70.5t-101.5 -203.5h-164zM375 0l33 184h182l-35 -184h-180z" />
<glyph unicode="@" horiz-adv-x="1918" d="M137 244q0 210 70 390.5t197 311t314 205t412 74.5q221 0 398.5 -87t279 -247t101.5 -363q0 -281 -127.5 -453.5t-325.5 -172.5q-106 0 -166.5 50.5t-66.5 139.5q-128 -145 -299 -145q-154 0 -256.5 108.5t-102.5 263.5q0 191 132 322t317 131q98 0 174 -47t117 -125 l26 158h152l-99 -559q-26 -152 99 -152q113 0 190.5 131t77.5 340q0 251 -174.5 405t-462.5 154q-182 0 -335 -60.5t-258.5 -168.5t-164.5 -261t-59 -333q0 -168 74 -301.5t209.5 -210t308.5 -76.5q200 0 350 66l47 -142q-94 -41 -189 -57t-218 -16q-161 0 -299.5 56 t-235.5 153.5t-152 231.5t-55 286zM715 330q0 -101 70 -171.5t180 -70.5q115 0 201.5 88t86.5 215q0 99 -67 169.5t-172 70.5q-123 0 -211 -87t-88 -214z" />
<glyph unicode="A" horiz-adv-x="1269" d="M29 0l735 1329h207l270 -1329h-164l-69 328h-617l-178 -328h-184zM477 483h500l-131 666z" />
<glyph unicode="B" horiz-adv-x="1204" d="M170 0l233 1329h471q165 0 264 -88t99 -229q0 -100 -53 -187.5t-148 -136.5q148 -92 148 -258q0 -190 -134.5 -310t-353.5 -120h-526zM365 156h358q129 0 211 73t82 193q0 78 -49.5 131t-126.5 53h-398zM469 756h377q87 0 154 71.5t67 167.5q0 76 -54.5 127.5 t-144.5 51.5h-325z" />
<glyph unicode="C" horiz-adv-x="1386" d="M199 573q0 160 58.5 304t159 247.5t241 164.5t298.5 61q177 0 316.5 -83.5t212.5 -226.5l-154 -84q-51 108 -153.5 172t-237.5 64q-159 0 -290 -80.5t-205 -219t-74 -304.5q0 -195 116 -322t310 -127q137 0 254 57.5t202 165.5l131 -94q-109 -139 -263.5 -212.5 t-338.5 -73.5q-257 0 -420 166t-163 425z" />
<glyph unicode="D" horiz-adv-x="1388" d="M170 0l233 1329h420q261 0 430.5 -161.5t169.5 -411.5q0 -209 -104 -383t-282 -273.5t-388 -99.5h-479zM367 158h299q119 0 226.5 45t186 121.5t124.5 185t46 229.5q0 187 -121.5 309.5t-320.5 122.5h-264z" />
<glyph unicode="E" horiz-adv-x="1044" d="M170 0l233 1329h781l-27 -158h-614l-74 -415h557l-27 -154h-557l-77 -444h618l-29 -158h-784z" />
<glyph unicode="F" horiz-adv-x="999" d="M170 0l233 1329h771l-27 -158h-602l-78 -440h549l-29 -158h-549l-100 -573h-168z" />
<glyph unicode="G" horiz-adv-x="1470" d="M199 573q0 213 101.5 392t276.5 282t384 103q150 0 273 -60t204 -168l-135 -112q-57 85 -149.5 133.5t-209.5 48.5q-158 0 -290 -80.5t-207.5 -219t-75.5 -304.5q0 -193 123.5 -321t320.5 -128q200 0 333.5 111.5t176.5 306.5h-430l27 141h596q-6 -156 -60.5 -289 t-147.5 -227t-224 -147t-285 -53q-172 0 -309.5 75.5t-215 210.5t-77.5 305z" />
<glyph unicode="H" horiz-adv-x="1343" d="M170 0l233 1329h168l-98 -569h666l98 569h168l-234 -1329h-167l106 600h-666l-106 -600h-168z" />
<glyph unicode="I" horiz-adv-x="507" d="M170 0l233 1329h168l-233 -1329h-168z" />
<glyph unicode="J" horiz-adv-x="962" d="M49 143l121 123q47 -63 106 -95t146 -32q119 0 190.5 69.5t100.5 221.5l157 899h168l-159 -911q-43 -235 -159 -335.5t-308 -100.5q-123 0 -214.5 44t-148.5 117z" />
<glyph unicode="K" horiz-adv-x="1193" d="M170 0l233 1329h166l-123 -704l730 704h213l-627 -600l440 -729h-188l-375 610l-236 -225l-67 -385h-166z" />
<glyph unicode="L" horiz-adv-x="978" d="M170 0l233 1329h183l-207 -1167h594l-29 -162h-774z" />
<glyph unicode="M" horiz-adv-x="1744" d="M170 0l233 1329h250l244 -1159l647 1159h262l-233 -1329h-168l197 1114l-635 -1114h-189l-246 1104l-194 -1104h-168z" />
<glyph unicode="N" horiz-adv-x="1476" d="M170 0l233 1329h164l621 -1061l184 1061h168l-233 -1329h-156l-625 1071l-188 -1071h-168z" />
<glyph unicode="O" horiz-adv-x="1529" d="M195 573q0 160 61 304t164.5 247.5t246.5 164.5t302 61q261 0 430.5 -167.5t169.5 -426.5q0 -161 -61 -305t-165 -246.5t-247 -162.5t-301 -60q-260 0 -430 167t-170 424zM369 588q0 -194 122 -321.5t320 -127.5q159 0 293 78.5t212.5 216.5t78.5 305q0 194 -122 323.5 t-321 129.5q-160 0 -294.5 -80.5t-211.5 -219.5t-77 -304z" />
<glyph unicode="P" horiz-adv-x="1116" d="M170 0l233 1329h426q181 0 290.5 -104t109.5 -260q0 -223 -150.5 -356.5t-388.5 -133.5h-266l-86 -475h-168zM451 631h266q151 0 245.5 87t94.5 228q0 102 -65.5 165t-182.5 63h-264z" />
<glyph unicode="Q" horiz-adv-x="1521" d="M195 573q0 160 61 304t164.5 247.5t246.5 164.5t302 61q261 0 430.5 -167.5t169.5 -426.5q0 -174 -69 -325t-191 -259l108 -139l-133 -105l-115 148q-177 -94 -374 -94q-260 0 -430 167t-170 424zM369 588q0 -194 122 -321.5t320 -127.5q136 0 260 62l-219 280l135 107 l223 -289q87 84 136 197.5t49 242.5q0 194 -122 323.5t-321 129.5q-160 0 -294.5 -80.5t-211.5 -219.5t-77 -304z" />
<glyph unicode="R" horiz-adv-x="1155" d="M170 0l233 1329h406q194 0 302 -100t108 -256q0 -164 -97 -277.5t-260 -150.5l223 -545h-186l-215 526h-260l-92 -526h-162zM449 659h258q155 0 250.5 83t95.5 216q0 102 -67.5 162t-194.5 60h-252z" />
<glyph unicode="S" horiz-adv-x="1099" d="M94 205l137 108q58 -88 153.5 -131t211.5 -43q148 0 231.5 63.5t83.5 172.5q0 64 -35 110.5t-90.5 73.5t-123 50t-135 50t-123 63t-90.5 98.5t-35 148.5q0 170 136 275.5t355 105.5q146 0 260.5 -53t173.5 -152l-131 -111q-44 75 -125 116.5t-182 41.5q-141 0 -228 -59 t-87 -154q0 -52 35 -91.5t91 -65.5t124 -51t136 -56t124 -71t91 -105.5t35 -151.5q0 -193 -137.5 -299t-359.5 -106q-176 0 -303.5 55.5t-192.5 167.5z" />
<glyph unicode="T" horiz-adv-x="1105" d="M238 1171l28 158h1041l-27 -158h-436l-207 -1171h-168l207 1171h-438z" />
<glyph unicode="U" horiz-adv-x="1417" d="M250 302q-11 51 -11 110q0 64 13 137l137 780h168l-137 -774q-11 -62 -11 -115q0 -126 62 -198q88 -102 270 -103q379 0 451 416l137 774h168l-137 -780q-98 -567 -635 -567q-126 0 -224.5 36t-163 107t-87.5 177z" />
<glyph unicode="V" horiz-adv-x="1280" d="M262 1329h170l234 -1161l641 1161h178l-742 -1329h-204z" />
<glyph unicode="W" horiz-adv-x="1980" d="M262 1329h170l146 -1139l548 1139h189l147 -1139l547 1139h176l-651 -1329h-205l-145 1100l-535 -1100h-205z" />
<glyph unicode="X" horiz-adv-x="1181" d="M12 0l596 682l-346 647h191l272 -528l461 528h198l-573 -655l356 -674h-188l-283 545l-481 -545h-203z" />
<glyph unicode="Y" horiz-adv-x="1271" d="M266 1329h187l301 -633l520 633h196l-655 -784l-94 -545h-170l96 547z" />
<glyph unicode="Z" horiz-adv-x="1089" d="M68 0l20 123l905 1051h-719l27 155h954l-20 -123l-905 -1050h719l-27 -156h-954z" />
<glyph unicode="[" horiz-adv-x="686" d="M115 -301l288 1630h476l-27 -143h-309l-238 -1344h311l-24 -143h-477z" />
<glyph unicode="\" horiz-adv-x="706" d="M295 1329h151l197 -1329h-151z" />
<glyph unicode="]" horiz-adv-x="686" d="M-10 -301l26 143h310l237 1344h-311l24 143h478l-287 -1630h-477z" />
<glyph unicode="^" d="M276 602l496 727h184l238 -727h-156l-190 592l-395 -592h-177z" />
<glyph unicode="_" horiz-adv-x="1024" d="M45 -209l27 154h858l-25 -154h-860z" />
<glyph unicode="`" horiz-adv-x="1228" d="M352 1307l82 133l404 -242l-74 -123z" />
<glyph unicode="a" horiz-adv-x="1245" d="M156 434q0 116 44.5 219.5t119 177.5t175.5 117t210 43q122 0 215.5 -58t144.5 -155l35 195h164l-172 -973h-164l26 152q-71 -79 -163 -124.5t-195 -45.5q-190 0 -315 131t-125 321zM315 444q0 -129 90.5 -220t233.5 -91q149 0 261 114.5t112 278.5q0 131 -87 222.5 t-223 91.5q-159 0 -273 -114.5t-114 -281.5z" />
<glyph unicode="b" horiz-adv-x="1245" d="M152 0l243 1382h164l-98 -561q71 79 163 124.5t195 45.5q190 0 315.5 -131.5t125.5 -322.5q0 -153 -75.5 -281.5t-201.5 -201t-272 -72.5q-122 0 -216 58t-145 155l-35 -195h-163zM403 444q0 -129 87 -220t223 -91q159 0 273 114t114 279q0 131 -90.5 222.5t-233.5 91.5 q-149 0 -261 -115t-112 -281z" />
<glyph unicode="c" horiz-adv-x="1054" d="M156 434q0 154 75.5 282.5t203 201.5t278.5 73q134 0 242.5 -63.5t166.5 -171.5l-141 -76q-39 74 -113.5 117t-171.5 43q-156 0 -268.5 -114.5t-112.5 -281.5q0 -130 88 -220.5t230 -90.5q90 0 171 41.5t134 112.5l125 -86q-75 -102 -194.5 -160.5t-252.5 -58.5 q-130 0 -236 60.5t-165 164t-59 227.5z" />
<glyph unicode="d" horiz-adv-x="1243" d="M156 434q0 116 44.5 219.5t119 177.5t175.5 117t210 43q122 0 214.5 -57.5t145.5 -155.5l106 604h164l-243 -1382h-164l26 152q-71 -79 -163 -124.5t-195 -45.5q-190 0 -315 131t-125 321zM315 444q0 -129 90.5 -220t233.5 -91q149 0 261 114.5t112 278.5 q0 131 -87 222.5t-223 91.5q-159 0 -273 -114.5t-114 -281.5z" />
<glyph unicode="e" horiz-adv-x="1132" d="M156 434q0 154 76 283t202 201.5t271 72.5q198 0 326 -127t128 -315q0 -51 -14 -109h-830q2 -132 91 -221.5t235 -89.5q163 0 287 133l112 -96q-175 -184 -426 -184q-195 0 -326.5 131.5t-131.5 320.5zM338 582h657q-16 113 -98.5 187.5t-208.5 74.5q-118 0 -215 -72.5 t-135 -189.5z" />
<glyph unicode="f" horiz-adv-x="677" d="M209 815l29 158h145l4 33q18 112 59.5 191t103.5 123t133.5 63.5t160.5 19.5q26 0 49 -2l-29 -158q-18 2 -45 2q-112 0 -179.5 -54t-88.5 -185l-4 -33h270l-29 -158h-270l-143 -815h-164l143 815h-145z" />
<glyph unicode="g" horiz-adv-x="1241" d="M84 -356l84 139q148 -102 338 -102q179 0 290.5 97.5t145.5 287.5l16 88q-155 -172 -360 -172q-190 0 -316 131t-126 321q0 116 44.5 219.5t119 177.5t175.5 117t210 43q123 0 216.5 -58.5t145.5 -156.5l35 197h164l-160 -901q-50 -276 -199.5 -409.5t-414.5 -133.5 q-116 0 -224.5 30.5t-183.5 84.5zM315 444q0 -130 91 -220.5t235 -90.5q149 0 261 114.5t112 278.5q0 131 -86.5 222.5t-222.5 91.5q-159 0 -274.5 -114.5t-115.5 -281.5z" />
<glyph unicode="h" horiz-adv-x="1173" d="M152 0l243 1382h160l-102 -577q59 90 151 138t199 48q187 0 277 -111q64 -79 64 -207q0 -53 -11 -114l-99 -559h-164l97 541q8 44 8 81q0 86 -40 140q-57 78 -181 78q-75 0 -143 -30t-123 -97.5t-76 -163.5l-97 -549h-163z" />
<glyph unicode="i" horiz-adv-x="464" d="M152 0l172 973h163l-172 -973h-163zM348 1171l33 185h182l-33 -185h-182z" />
<glyph unicode="j" horiz-adv-x="464" d="M-154 -469l29 160q18 -2 41 -2q85 0 141 46t76 159l191 1079h163l-190 -1079q-35 -202 -129.5 -283.5t-257.5 -81.5q-41 0 -64 2zM348 1171l33 185h180l-33 -185h-180z" />
<glyph unicode="k" horiz-adv-x="997" d="M152 0l243 1382h164l-149 -852l512 443h213l-473 -412l339 -561h-184l-278 453l-170 -148l-54 -305h-163z" />
<glyph unicode="l" horiz-adv-x="464" d="M152 0l243 1382h164l-244 -1382h-163z" />
<glyph unicode="m" horiz-adv-x="1794" d="M152 0l172 973h159l-28 -160q127 178 331 178q118 0 194 -56t103 -157q136 213 377 213q176 0 256 -119q56 -83 55 -204q0 -52 -10 -111l-98 -557h-164l94 541q9 51 9 93q0 80 -32 130q-49 76 -167 76q-105 0 -194 -75t-122 -204v-4l-98 -557h-164l95 541q9 50 9 92 q-1 80 -33 130q-50 77 -167 77q-109 0 -200 -80t-119 -217l-95 -543h-163z" />
<glyph unicode="n" horiz-adv-x="1173" d="M152 0l172 973h159l-30 -168q59 90 151 138t199 48q187 0 277 -111q64 -79 64 -207q0 -53 -11 -114l-99 -559h-164l97 541q8 44 8 81q0 86 -40 140q-57 78 -181 78q-75 0 -143 -30t-123 -97.5t-76 -163.5l-97 -549h-163z" />
<glyph unicode="o" horiz-adv-x="1175" d="M160 434q0 154 77.5 282.5t207 201.5t280.5 73q198 0 332.5 -132t134.5 -322q0 -153 -77.5 -281.5t-207 -201t-280.5 -72.5q-198 0 -332.5 131.5t-134.5 320.5zM319 444q0 -129 90.5 -220t233.5 -91q158 0 273.5 114t115.5 279q0 131 -90.5 222.5t-234.5 91.5 q-156 0 -272 -115t-116 -281z" />
<glyph unicode="p" horiz-adv-x="1245" d="M72 -451l252 1424h163l-26 -152q71 79 163 124.5t195 45.5q190 0 315.5 -131.5t125.5 -322.5q0 -153 -75.5 -281.5t-201.5 -201t-272 -72.5q-122 0 -216 58t-145 155l-114 -646h-164zM403 444q0 -129 87 -220t223 -91q159 0 273 114t114 279q0 131 -90.5 222.5 t-233.5 91.5q-149 0 -261 -115t-112 -281z" />
<glyph unicode="q" horiz-adv-x="1245" d="M156 434q0 116 44.5 219.5t119 177.5t175.5 117t210 43q122 0 215.5 -58t144.5 -155l35 195h164l-250 -1424h-164l106 603q-72 -79 -164.5 -124.5t-195.5 -45.5q-190 0 -315 131t-125 321zM315 444q0 -129 90.5 -220t233.5 -91q149 0 261 114.5t112 278.5 q0 131 -87 222.5t-223 91.5q-159 0 -273 -114.5t-114 -281.5z" />
<glyph unicode="r" horiz-adv-x="712" d="M152 0l172 973h165l-38 -213q102 231 403 231l-31 -180h-32q-147 0 -256 -98.5t-138 -261.5l-80 -451h-165z" />
<glyph unicode="s" horiz-adv-x="892" d="M94 201l152 73q62 -153 241 -153q97 0 154 41.5t57 111.5q0 40 -26 69t-68 47.5t-93 35t-101.5 38t-92.5 50t-68 76.5t-26 112q0 126 105 208.5t272 82.5q117 0 208.5 -49.5t133.5 -138.5l-154 -76q-50 123 -196 123q-89 0 -144 -39t-55 -106q0 -32 20.5 -57t54 -41.5 t76 -33.5t87 -32t87 -38.5t76 -51t54 -71t20.5 -97.5q0 -142 -104.5 -222.5t-286.5 -80.5q-299 0 -383 219z" />
<glyph unicode="t" horiz-adv-x="657" d="M178 815l29 158h186l43 248h164l-43 -248h252l-29 -158h-252l-143 -815h-164l144 815h-187z" />
<glyph unicode="u" horiz-adv-x="1169" d="M207 414l98 559h164l-96 -541q-8 -44 -8 -81q0 -86 40 -140q57 -78 181 -78q56 0 109 17.5t100 52t82 91.5t51 130l96 549h164l-172 -973h-160l31 168q-59 -90 -151 -138t-199 -48q-187 0 -277 111q-64 79 -64 207q0 53 11 114z" />
<glyph unicode="v" horiz-adv-x="1046" d="M199 973h166l184 -783l463 783h180l-582 -973h-174z" />
<glyph unicode="w" horiz-adv-x="1650" d="M201 973h174l129 -770l409 770h154l139 -770l404 770h184l-532 -973h-164l-140 756l-399 -756h-172z" />
<glyph unicode="x" horiz-adv-x="950" d="M16 0l455 504l-256 469h180l191 -346l307 346h186l-422 -469l277 -504h-176l-209 379l-340 -379h-193z" />
<glyph unicode="y" horiz-adv-x="1062" d="M168 -451l281 449l-256 975h176l198 -778l451 778h192l-868 -1424h-174z" />
<glyph unicode="z" horiz-adv-x="921" d="M76 0l26 147l678 680h-559l27 146h772l-27 -148l-678 -680h557l-24 -145h-772z" />
<glyph unicode="{" horiz-adv-x="690" d="M131 440l27 148q96 6 148.5 59.5t72.5 167.5l51 283q19 117 80 174t180 57h189l-25 -143h-127q-63 0 -95.5 -34.5t-43.5 -102.5l-45 -256q-21 -118 -76.5 -183.5t-155.5 -95.5q173 -58 131 -278l-45 -256q-12 -66 8.5 -102t86.5 -36h124l-24 -143h-176 q-110 0 -160.5 65.5t-32.5 167.5l51 283q20 113 -14 167t-129 58z" />
<glyph unicode="|" horiz-adv-x="499" d="M137 -174l264 1503h166l-264 -1503h-166z" />
<glyph unicode="}" horiz-adv-x="690" d="M-6 -301l24 143h127q63 0 96 35t44 103l45 256q21 119 75.5 183.5t153.5 94.5q-85 29 -117.5 101t-13.5 178l45 256q12 67 -7.5 102t-86.5 35h-125l27 143h176q110 0 160 -65t32 -166l-51 -283q-20 -114 13.5 -168t127.5 -59l-24 -148q-96 -6 -148.5 -59t-72.5 -166 l-52 -283q-19 -118 -80 -175.5t-180 -57.5h-188z" />
<glyph unicode="~" d="M260 524q21 113 90 177.5t182 64.5q79 0 153.5 -24t142 -48t128.5 -24q106 0 121 96h156q-19 -112 -88.5 -177t-181.5 -65q-63 0 -125.5 15t-105 33.5t-94 33.5t-93.5 15q-54 0 -87 -25t-40 -72h-158z" />
<glyph unicode="&#xa1;" horiz-adv-x="452" d="M80 -356l78 448l123 488h94l-49 -488l-80 -448h-166zM274 788l31 185h182l-30 -185h-183z" />
<glyph unicode="&#xa2;" horiz-adv-x="1036" d="M197 618q0 204 137 349.5t338 162.5l35 199h147l-37 -207q93 -20 166 -75t115 -134l-142 -75q-76 143 -256 143q-141 0 -242.5 -101.5t-101.5 -250.5q0 -119 78.5 -200t208.5 -81q82 0 154.5 36.5t122.5 100.5l124 -84q-68 -89 -167 -142t-213 -60l-37 -199h-148l39 209 q-143 35 -232 148.5t-89 260.5z" />
<glyph unicode="&#xa3;" horiz-adv-x="1071" d="M94 0l25 141q54 42 79.5 63t68.5 62.5t64.5 74.5t41.5 81t26 100h-213l25 148h180q-5 17 -22 66t-25 90t-8 92q0 189 125.5 310.5t326.5 121.5t301 -110t64 -302h-168q22 118 -33 185t-170 67q-123 0 -199.5 -73t-76.5 -202q0 -43 9.5 -83.5t26 -87.5t23.5 -74h400 l-27 -148h-367q-8 -51 -29 -100t-44 -82.5t-59.5 -70.5t-58 -55t-56.5 -46h680l-29 -168h-881z" />
<glyph unicode="&#xa4;" horiz-adv-x="1241" d="M186 301l170 145q-57 91 -57 203q0 178 121 312l-123 147l115 98l127 -151q113 69 256 69q145 0 256 -84l172 146l90 -107l-166 -143q57 -91 57 -201q0 -184 -129 -319l113 -137l-115 -99l-119 144q-112 -64 -245 -64q-141 0 -254 82l-176 -149zM455 657q0 -106 75 -181 t195 -75q133 0 229.5 94.5t96.5 231.5q0 106 -76 181t-197 75q-131 0 -227 -94.5t-96 -231.5z" />
<glyph unicode="&#xa5;" horiz-adv-x="1318" d="M195 336l22 125h440l15 86l-60 123h-358l22 125h275l-262 534h188l301 -633l518 633h197l-444 -534h278l-24 -125h-359l-104 -125l-15 -84h441l-21 -125h-442l-60 -336h-168l60 336h-440z" />
<glyph unicode="&#xa6;" horiz-adv-x="499" d="M137 -174l103 584h166l-103 -584h-166zM299 745l102 584h166l-102 -584h-166z" />
<glyph unicode="&#xa7;" horiz-adv-x="995" d="M96 -74l119 97q43 -56 115 -85.5t155 -29.5q116 0 182 38.5t66 108.5q0 41 -23.5 74.5t-62 55.5t-87.5 45t-100.5 41.5t-100.5 46t-87.5 59t-62 80t-23.5 108.5q0 96 59.5 167t168.5 108q-111 76 -111 207q0 136 118.5 219.5t309.5 83.5q114 0 214.5 -42.5t150.5 -113.5 l-119 -96q-85 116 -258 116q-122 0 -190 -43.5t-68 -121.5q0 -43 30 -75.5t78 -54t106.5 -42t116.5 -45.5t106 -58t78 -87t30 -124q0 -99 -60.5 -172.5t-173.5 -111.5q117 -81 117 -211q0 -137 -113 -216t-303 -79q-116 0 -222.5 41.5t-154.5 111.5zM346 580q0 -33 14 -60.5 t34 -46.5t56 -39.5t64 -32.5t75.5 -31.5t74.5 -31.5q88 23 136 78t48 131q0 31 -9 56t-28 45t-39 35t-53 29.5t-57 23.5t-64 23t-63 23q-93 -23 -141 -75.5t-48 -126.5z" />
<glyph unicode="&#xa8;" horiz-adv-x="1228" d="M360 1171l31 187h187l-33 -187h-185zM772 1171l31 187h186l-33 -187h-184z" />
<glyph unicode="&#xa9;" horiz-adv-x="1536" d="M199 573q0 160 60.5 304t164 247.5t247 164.5t302.5 61q261 0 429.5 -167.5t168.5 -426.5q0 -161 -61 -305t-165 -246.5t-246.5 -162.5t-299.5 -60q-260 0 -430 167t-170 424zM322 582q0 -213 133.5 -352.5t351.5 -139.5q130 0 248.5 50.5t204.5 137.5t137 209t51 258 q0 212 -133.5 353t-351.5 141q-132 0 -251 -51.5t-204.5 -139t-135.5 -209.5t-50 -257zM508 629q0 176 123.5 298t298.5 122q102 0 184.5 -49t124.5 -130l-111 -59q-30 55 -84 86t-126 31q-118 0 -201.5 -83t-83.5 -208q0 -101 63.5 -167.5t171.5 -66.5q69 0 129.5 29.5 t100.5 83.5l96 -65q-57 -78 -147 -123t-191 -45q-151 0 -249.5 100t-98.5 246z" />
<glyph unicode="&#xaa;" horiz-adv-x="892" d="M254 981q0 148 105 254t257 106q73 0 131.5 -32t92.5 -90l20 110h133l-108 -627h-137l16 89q-101 -101 -232 -101q-120 0 -199 82t-79 209zM395 991q0 -75 49.5 -122.5t126.5 -47.5q89 0 153 64t64 155q0 73 -49.5 120.5t-126.5 47.5q-90 0 -153.5 -63.5t-63.5 -153.5z " />
<glyph unicode="&#xab;" horiz-adv-x="1007" d="M154 475l344 348h176l-350 -354l215 -340h-164zM528 475l346 348h177l-351 -354l215 -340h-165z" />
<glyph unicode="&#xac;" d="M248 549l28 156h947l-82 -455h-168l53 299h-778z" />
<glyph unicode="&#xad;" horiz-adv-x="831" d="M207 479l26 152h588l-24 -152h-590z" />
<glyph unicode="&#xae;" horiz-adv-x="1536" d="M199 573q0 160 60.5 304t164 247.5t247 164.5t302.5 61q261 0 429.5 -167.5t168.5 -426.5q0 -161 -61 -305t-165 -246.5t-246.5 -162.5t-299.5 -60q-260 0 -430 167t-170 424zM322 582q0 -213 133.5 -352.5t351.5 -139.5q130 0 248.5 50.5t204.5 137.5t137 209t51 258 q0 212 -133.5 353t-351.5 141q-132 0 -251 -51.5t-204.5 -139t-135.5 -209.5t-50 -257zM594 297l133 756h240q116 0 184 -55.5t68 -157.5q0 -88 -57 -152.5t-154 -89.5l127 -301h-136l-112 289h-119l-53 -289h-121zM784 686h123q87 0 139 38t52 110q0 54 -38 82t-108 28 h-121z" />
<glyph unicode="&#xaf;" horiz-adv-x="1228" d="M334 1202l26 146h652l-27 -146h-651z" />
<glyph unicode="&#xb0;" horiz-adv-x="751" d="M264 1022q0 134 95.5 225.5t228.5 91.5q115 0 192.5 -76t77.5 -184q0 -132 -96.5 -223.5t-229.5 -91.5q-115 0 -191.5 75t-76.5 183zM391 1032q0 -60 43.5 -102.5t110.5 -42.5q75 0 129.5 53.5t54.5 130.5q0 61 -42.5 103.5t-111.5 42.5q-73 0 -128.5 -54t-55.5 -131z " />
<glyph unicode="&#xb1;" d="M178 119l29 155h946l-29 -155h-946zM287 733l26 154h398l57 334h154l-58 -334h396l-27 -154h-397l-58 -334h-153l57 334h-395z" />
<glyph unicode="&#xb2;" horiz-adv-x="765" d="M217 580l21 102l305 248q34 27 53 44t42 42t33.5 50t10.5 52q0 82 -92 82q-115 0 -135 -125h-148q23 132 102 199t197 67q111 0 169.5 -53t58.5 -145q0 -46 -17.5 -90t-50 -82.5t-60.5 -64t-67 -56.5l-168 -137h309l-22 -133h-541z" />
<glyph unicode="&#xb3;" horiz-adv-x="712" d="M217 782l139 47q8 -124 136 -124q59 0 95 33t36 89q0 46 -32 73.5t-85 27.5h-33l-43 82l207 186h-307l22 133h477l-22 -133l-203 -190q81 -11 121.5 -62.5t40.5 -118.5q0 -117 -80.5 -187.5t-202.5 -70.5q-117 0 -190 57.5t-76 157.5z" />
<glyph unicode="&#xb4;" horiz-adv-x="1228" d="M326 1206l487 242l53 -141l-491 -230z" />
<glyph unicode="&#xb5;" horiz-adv-x="1169" d="M106 -254l216 1227h159l-92 -524q-28 -157 44 -239.5t210 -82.5q252 0 303 291l96 555h160l-102 -582q-37 -212 -152 -313t-286 -101q-129 0 -214 52.5t-108 144.5l-76 -428h-158z" />
<glyph unicode="&#xb6;" horiz-adv-x="1263" d="M209 852q0 208 140.5 342.5t371.5 134.5h690l-25 -137h-120l-240 -1366h-139l239 1366h-227l-240 -1366h-151l119 680h-52q-172 0 -269 94t-97 252z" />
<glyph unicode="&#xb7;" horiz-adv-x="440" d="M209 492l35 194h196l-34 -194h-197z" />
<glyph unicode="&#xb8;" horiz-adv-x="1228" d="M49 -416l92 84q12 -31 45.5 -49t79.5 -18q58 0 91.5 29t33.5 81q0 39 -24.5 62.5t-69.5 23.5h-141l120 228h111l-65 -125h32q72 0 120 -51t48 -130q0 -101 -72.5 -164t-191.5 -63q-144 0 -209 92z" />
<glyph unicode="&#xb9;" horiz-adv-x="518" d="M260 1184l25 145h331l-131 -749h-166l107 604h-166z" />
<glyph unicode="&#xba;" horiz-adv-x="823" d="M254 981q0 146 109 253t260 107q133 0 219 -82t86 -210q0 -147 -108.5 -253t-258.5 -106q-135 0 -221 81.5t-86 209.5zM395 991q0 -73 49.5 -120.5t124.5 -47.5q89 0 153 64t64 153q0 72 -49.5 120t-124.5 48q-90 0 -153.5 -63.5t-63.5 -153.5z" />
<glyph unicode="&#xbb;" horiz-adv-x="1009" d="M127 129l350 354l-215 340h164l221 -348l-344 -346h-176zM502 129l350 354l-215 340h166l221 -348l-344 -346h-178z" />
<glyph unicode="&#xbc;" horiz-adv-x="1458" d="M266 1184l27 145h332l-131 -749h-166l106 604h-168zM276 0l881 1329h143l-880 -1329h-144zM915 172l25 135l260 443h164l-258 -443h213l37 213h151l-37 -213h89l-25 -135h-88l-31 -172h-151l30 172h-379z" />
<glyph unicode="&#xbd;" horiz-adv-x="1458" d="M264 1184l27 145h332l-131 -749h-166l106 604h-168zM276 0l879 1329h143l-878 -1329h-144zM950 0l19 104l307 246q68 54 103.5 96.5t35.5 92.5q0 40 -24 61t-68 21q-56 0 -91 -31t-44 -94h-148q21 132 100.5 199t196.5 67q113 0 171.5 -53.5t58.5 -145.5q0 -46 -17 -89.5 t-50 -82t-60.5 -63t-67.5 -56.5l-172 -139h313l-24 -133h-539z" />
<glyph unicode="&#xbe;" horiz-adv-x="1603" d="M201 782l141 47q6 -124 135 -124q59 0 95 33t36 89q0 46 -31.5 73.5t-84.5 27.5h-35l-43 82l209 186h-310l23 133h479l-24 -133l-203 -190q81 -11 121.5 -62.5t40.5 -118.5q0 -117 -80 -187.5t-201 -70.5q-117 0 -190.5 57.5t-77.5 157.5zM424 0l879 1329h143l-879 -1329 h-143zM1063 172l24 135l261 443h163l-260 -443h215l37 213h150l-37 -213h88l-25 -135h-88l-30 -172h-150l31 172h-379z" />
<glyph unicode="&#xbf;" horiz-adv-x="929" d="M59 -78q0 68 21 127t56 101.5t77 80t86 69.5t81.5 63t65 68t35.5 77l13 72h159l-12 -78q-8 -50 -35.5 -96t-64.5 -81.5t-79.5 -69.5t-83.5 -68t-74.5 -69t-54 -80t-20.5 -95q0 -76 53 -121t148 -45q113 0 191.5 70.5t101.5 203.5h164q-35 -208 -160 -318t-311 -110 q-166 0 -261.5 83t-95.5 216zM518 788l35 185h180l-33 -185h-182z" />
<glyph unicode="&#xc0;" horiz-adv-x="1269" d="M29 0l735 1329h207l270 -1329h-164l-69 328h-617l-178 -328h-184zM477 483h500l-131 666zM668 1663l82 135l403 -242l-74 -122z" />
<glyph unicode="&#xc1;" horiz-adv-x="1269" d="M29 0l735 1329h207l270 -1329h-164l-69 328h-617l-178 -328h-184zM477 483h500l-131 666zM645 1563l488 241l53 -141l-492 -229z" />
<glyph unicode="&#xc2;" horiz-adv-x="1269" d="M29 0l735 1329h207l270 -1329h-164l-69 328h-617l-178 -328h-184zM477 483h500l-131 666zM547 1550l366 254h76l279 -254l-92 -106l-238 201l-326 -213z" />
<glyph unicode="&#xc3;" horiz-adv-x="1269" d="M29 0l735 1329h207l270 -1329h-164l-69 328h-617l-178 -328h-184zM477 483h500l-131 666zM532 1513q14 110 79 176t163 66q47 0 90.5 -15.5t71 -34.5t63.5 -34.5t70 -15.5q93 0 111 94h133q-18 -112 -80.5 -177t-157.5 -65q-49 0 -93.5 16t-72 34.5t-63 34.5t-68.5 16 q-92 0 -112 -95h-134z" />
<glyph unicode="&#xc4;" horiz-adv-x="1269" d="M29 0l735 1329h207l270 -1329h-164l-69 328h-617l-178 -328h-184zM477 483h500l-131 666zM588 1520l35 206h208l-36 -206h-207zM1010 1520l37 206h206l-36 -206h-207z" />
<glyph unicode="&#xc5;" horiz-adv-x="1269" d="M29 0l735 1329h207l270 -1329h-164l-69 328h-617l-178 -328h-184zM477 483h500l-131 666zM692 1636q0 103 75 178.5t189 75.5q94 0 152.5 -55t58.5 -141q0 -102 -75.5 -177t-190.5 -75q-92 0 -150.5 54t-58.5 140zM811 1651q0 -42 28 -70.5t74 -28.5q58 0 97 39t39 92 q0 41 -28.5 69t-76.5 28q-56 0 -94.5 -39t-38.5 -90z" />
<glyph unicode="&#xc6;" horiz-adv-x="1757" d="M-25 0l1055 1329h864l-26 -158h-613l-73 -415h555l-27 -154h-557l-76 -444h617l-29 -158h-782l59 338h-493l-267 -338h-207zM569 494h400l114 653z" />
<glyph unicode="&#xc7;" horiz-adv-x="1374" d="M199 573q0 160 58.5 304t159 247.5t241 164.5t298.5 61q177 0 316.5 -83.5t212.5 -226.5l-154 -84q-51 108 -153.5 172t-237.5 64q-159 0 -290 -80.5t-205 -219t-74 -304.5q0 -195 116 -322t310 -127q137 0 254 57.5t202 165.5l131 -94q-109 -139 -263.5 -212.5 t-338.5 -73.5h-8l-45 -82h33q72 0 120 -51t48 -130q0 -101 -72.5 -164t-191.5 -63q-145 0 -207 92l90 84q14 -31 47.5 -49t77.5 -18q58 0 91.5 29t33.5 81q0 39 -24.5 62.5t-69.5 23.5h-142l103 195q-211 37 -339 195.5t-128 385.5z" />
<glyph unicode="&#xc8;" horiz-adv-x="1044" d="M170 0l233 1329h781l-27 -158h-614l-74 -415h557l-27 -154h-557l-77 -444h618l-29 -158h-784zM627 1663l82 135l403 -242l-74 -122z" />
<glyph unicode="&#xc9;" horiz-adv-x="1044" d="M170 0l233 1329h781l-27 -158h-614l-74 -415h557l-27 -154h-557l-77 -444h618l-29 -158h-784zM602 1563l490 241l51 -141l-490 -229z" />
<glyph unicode="&#xca;" horiz-adv-x="1044" d="M170 0l233 1329h781l-27 -158h-614l-74 -415h557l-27 -154h-557l-77 -444h618l-29 -158h-784zM506 1550l366 254h76l279 -254l-92 -106l-240 201l-324 -213z" />
<glyph unicode="&#xcb;" horiz-adv-x="1044" d="M170 0l233 1329h781l-27 -158h-614l-74 -415h557l-27 -154h-557l-77 -444h618l-29 -158h-784zM545 1520l37 206h206l-34 -206h-209zM967 1520l37 206h208l-36 -206h-209z" />
<glyph unicode="&#xcc;" horiz-adv-x="507" d="M170 0l233 1329h168l-233 -1329h-168zM289 1663l82 135l401 -242l-74 -122z" />
<glyph unicode="&#xcd;" horiz-adv-x="507" d="M170 0l233 1329h168l-233 -1329h-168zM264 1563l490 241l51 -141l-490 -229z" />
<glyph unicode="&#xce;" horiz-adv-x="507" d="M166 1550l366 254h78l279 -254l-92 -106l-240 201l-324 -213zM170 0l233 1329h168l-233 -1329h-168z" />
<glyph unicode="&#xcf;" horiz-adv-x="507" d="M170 0l233 1329h168l-233 -1329h-168zM207 1520l37 206h207l-37 -206h-207zM629 1520l37 206h206l-34 -206h-209z" />
<glyph unicode="&#xd0;" horiz-adv-x="1402" d="M158 592l26 147h138l104 590h418q262 0 431 -161t169 -412q0 -209 -103.5 -383t-281.5 -273.5t-389 -99.5h-477l104 592h-139zM387 158h299q159 0 293.5 75.5t213.5 209.5t79 296q0 186 -122.5 309t-320.5 123h-264l-76 -432h375l-26 -147h-375z" />
<glyph unicode="&#xd1;" horiz-adv-x="1476" d="M170 0l233 1329h164l621 -1061l184 1061h168l-233 -1329h-156l-625 1071l-188 -1071h-168zM645 1513q14 109 80 175.5t162 66.5q47 0 91 -15.5t71.5 -34.5t64 -34.5t70.5 -15.5q93 0 108 94h135q-17 -112 -80 -177t-157 -65q-49 0 -93.5 16t-72 34.5t-63 34.5t-68.5 16 q-96 0 -113 -95h-135z" />
<glyph unicode="&#xd2;" horiz-adv-x="1521" d="M195 573q0 160 61 304t164.5 247.5t246.5 164.5t302 61q261 0 430.5 -167.5t169.5 -426.5q0 -161 -61 -305t-165 -246.5t-247 -162.5t-301 -60q-260 0 -430 167t-170 424zM369 588q0 -194 122 -321.5t320 -127.5q159 0 293 78.5t212.5 216.5t78.5 305q0 194 -122 323.5 t-321 129.5q-160 0 -294.5 -80.5t-211.5 -219.5t-77 -304zM795 1663l82 135l403 -242l-74 -122z" />
<glyph unicode="&#xd3;" horiz-adv-x="1521" d="M195 573q0 160 61 304t164.5 247.5t246.5 164.5t302 61q261 0 430.5 -167.5t169.5 -426.5q0 -161 -61 -305t-165 -246.5t-247 -162.5t-301 -60q-260 0 -430 167t-170 424zM369 588q0 -194 122 -321.5t320 -127.5q159 0 293 78.5t212.5 216.5t78.5 305q0 194 -122 323.5 t-321 129.5q-160 0 -294.5 -80.5t-211.5 -219.5t-77 -304zM770 1563l490 241l51 -141l-490 -229z" />
<glyph unicode="&#xd4;" horiz-adv-x="1521" d="M195 573q0 160 61 304t164.5 247.5t246.5 164.5t302 61q261 0 430.5 -167.5t169.5 -426.5q0 -161 -61 -305t-165 -246.5t-247 -162.5t-301 -60q-260 0 -430 167t-170 424zM369 588q0 -194 122 -321.5t320 -127.5q159 0 293 78.5t212.5 216.5t78.5 305q0 194 -122 323.5 t-321 129.5q-160 0 -294.5 -80.5t-211.5 -219.5t-77 -304zM674 1550l366 254h76l279 -254l-92 -106l-240 201l-324 -213z" />
<glyph unicode="&#xd5;" horiz-adv-x="1521" d="M195 573q0 160 61 304t164.5 247.5t246.5 164.5t302 61q261 0 430.5 -167.5t169.5 -426.5q0 -161 -61 -305t-165 -246.5t-247 -162.5t-301 -60q-260 0 -430 167t-170 424zM369 588q0 -194 122 -321.5t320 -127.5q159 0 293 78.5t212.5 216.5t78.5 305q0 194 -122 323.5 t-321 129.5q-160 0 -294.5 -80.5t-211.5 -219.5t-77 -304zM657 1513q15 110 81 176t163 66q47 0 90 -15.5t70.5 -34.5t64 -34.5t70.5 -15.5q94 0 109 94h135q-17 -111 -80.5 -176.5t-157.5 -65.5q-49 0 -93.5 16t-72 34.5t-63 34.5t-68.5 16q-95 0 -112 -95h-136z" />
<glyph unicode="&#xd6;" horiz-adv-x="1521" d="M195 573q0 160 61 304t164.5 247.5t246.5 164.5t302 61q261 0 430.5 -167.5t169.5 -426.5q0 -161 -61 -305t-165 -246.5t-247 -162.5t-301 -60q-260 0 -430 167t-170 424zM369 588q0 -194 122 -321.5t320 -127.5q159 0 293 78.5t212.5 216.5t78.5 305q0 194 -122 323.5 t-321 129.5q-160 0 -294.5 -80.5t-211.5 -219.5t-77 -304zM713 1520l37 206h206l-36 -206h-207zM1135 1520l36 206h209l-37 -206h-208z" />
<glyph unicode="&#xd7;" d="M270 324l359 305l-248 301l123 108l250 -303l362 309l92 -114l-362 -307l252 -306l-125 -106l-252 305l-361 -307z" />
<glyph unicode="&#xd8;" horiz-adv-x="1550" d="M106 78l197 168q-92 143 -92 327q0 160 60.5 304t164 247.5t247 164.5t302.5 61q258 0 426 -162l201 170l94 -115l-203 -172q82 -139 82 -315q0 -161 -61.5 -305t-165.5 -246.5t-247 -162.5t-300 -60q-250 0 -414 151l-200 -170zM385 588q0 -128 53 -228l840 713 q-122 119 -309 119q-161 0 -295.5 -80.5t-211.5 -219t-77 -304.5zM530 246q116 -107 297 -107q159 0 293 78.5t212.5 216.5t78.5 305q0 119 -47 215z" />
<glyph unicode="&#xd9;" horiz-adv-x="1417" d="M250 302q-23 106 2 247l137 780h168l-137 -774q-37 -211 51 -313.5t270 -102.5q379 0 451 416l137 774h168l-137 -780q-98 -567 -635 -567q-126 0 -224.5 36t-163 107t-87.5 177zM741 1663l82 135l404 -242l-74 -122z" />
<glyph unicode="&#xda;" horiz-adv-x="1417" d="M250 302q-23 106 2 247l137 780h168l-137 -774q-37 -211 51 -313.5t270 -102.5q379 0 451 416l137 774h168l-137 -780q-98 -567 -635 -567q-126 0 -224.5 36t-163 107t-87.5 177zM719 1563l487 241l54 -141l-492 -229z" />
<glyph unicode="&#xdb;" horiz-adv-x="1417" d="M250 302q-23 106 2 247l137 780h168l-137 -774q-37 -211 51 -313.5t270 -102.5q379 0 451 416l137 774h168l-137 -780q-98 -567 -635 -567q-126 0 -224.5 36t-163 107t-87.5 177zM621 1550l366 254h76l280 -254l-94 -106l-237 201l-324 -213z" />
<glyph unicode="&#xdc;" horiz-adv-x="1417" d="M250 302q-23 106 2 247l137 780h168l-137 -774q-37 -211 51 -313.5t270 -102.5q379 0 451 416l137 774h168l-137 -780q-98 -567 -635 -567q-126 0 -224.5 36t-163 107t-87.5 177zM662 1520l36 206h207l-37 -206h-206zM1083 1520l37 206h207l-37 -206h-207z" />
<glyph unicode="&#xdd;" horiz-adv-x="1271" d="M266 1329h187l301 -633l520 633h196l-655 -784l-94 -545h-170l96 547zM643 1563l490 241l51 -141l-490 -229z" />
<glyph unicode="&#xde;" horiz-adv-x="1140" d="M170 0l233 1329h168l-41 -233h256q181 0 290.5 -105t109.5 -262q0 -221 -150.5 -355t-386.5 -134h-268l-43 -240h-168zM408 397h268q151 0 245.5 87t94.5 229q0 102 -65.5 163.5t-184.5 61.5h-264z" />
<glyph unicode="&#xdf;" horiz-adv-x="1128" d="M152 0l167 950q38 216 161.5 334.5t332.5 118.5q161 0 259.5 -86.5t98.5 -222.5q0 -130 -72 -229.5t-192 -141.5q96 -31 155.5 -109t59.5 -176q0 -214 -150.5 -326t-412.5 -112h-92l29 152h86q182 0 283.5 72.5t101.5 207.5q0 97 -73 154t-204 57h-110l26 145h86 q143 0 230.5 77.5t87.5 203.5q0 82 -56.5 133t-156.5 51q-130 0 -212 -77.5t-108 -225.5l-166 -950h-159z" />
<glyph unicode="&#xe0;" horiz-adv-x="1239" d="M156 434q0 116 44.5 219.5t119 177.5t175.5 117t210 43q122 0 215.5 -58t144.5 -155l35 195h164l-172 -973h-164l26 152q-71 -79 -163 -124.5t-195 -45.5q-190 0 -315 131t-125 321zM315 444q0 -129 90.5 -220t233.5 -91q149 0 261 114.5t112 278.5q0 131 -87 222.5 t-223 91.5q-159 0 -273 -114.5t-114 -281.5zM575 1307l82 133l404 -242l-74 -123z" />
<glyph unicode="&#xe1;" horiz-adv-x="1239" d="M156 434q0 116 44.5 219.5t119 177.5t175.5 117t210 43q122 0 215.5 -58t144.5 -155l35 195h164l-172 -973h-164l26 152q-71 -79 -163 -124.5t-195 -45.5q-190 0 -315 131t-125 321zM315 444q0 -129 90.5 -220t233.5 -91q149 0 261 114.5t112 278.5q0 131 -87 222.5 t-223 91.5q-159 0 -273 -114.5t-114 -281.5zM547 1206l489 242l51 -141l-489 -230z" />
<glyph unicode="&#xe2;" horiz-adv-x="1239" d="M156 434q0 116 44.5 219.5t119 177.5t175.5 117t210 43q122 0 215.5 -58t144.5 -155l35 195h164l-172 -973h-164l26 152q-71 -79 -163 -124.5t-195 -45.5q-190 0 -315 131t-125 321zM315 444q0 -129 90.5 -220t233.5 -91q149 0 261 114.5t112 278.5q0 131 -87 222.5 t-223 91.5q-159 0 -273 -114.5t-114 -281.5zM457 1223l379 254h53l291 -254l-95 -107l-237 201l-324 -213z" />
<glyph unicode="&#xe3;" horiz-adv-x="1239" d="M156 434q0 116 44.5 219.5t119 177.5t175.5 117t210 43q122 0 215.5 -58t144.5 -155l35 195h164l-172 -973h-164l26 152q-71 -79 -163 -124.5t-195 -45.5q-190 0 -315 131t-125 321zM315 444q0 -129 90.5 -220t233.5 -91q149 0 261 114.5t112 278.5q0 131 -87 222.5 t-223 91.5q-159 0 -273 -114.5t-114 -281.5zM436 1155q14 111 79 176.5t163 65.5q47 0 90.5 -16.5t71 -36t63.5 -36t70 -16.5q99 0 114 99h130q-17 -112 -79.5 -176t-158.5 -64q-49 0 -93.5 16.5t-72 35.5t-63 35.5t-68.5 16.5q-48 0 -79 -25.5t-38 -74.5h-129z" />
<glyph unicode="&#xe4;" horiz-adv-x="1239" d="M156 434q0 116 44.5 219.5t119 177.5t175.5 117t210 43q122 0 215.5 -58t144.5 -155l35 195h164l-172 -973h-164l26 152q-71 -79 -163 -124.5t-195 -45.5q-190 0 -315 131t-125 321zM315 444q0 -129 90.5 -220t233.5 -91q149 0 261 114.5t112 278.5q0 131 -87 222.5 t-223 91.5q-159 0 -273 -114.5t-114 -281.5zM510 1171l33 187h184l-31 -187h-186zM922 1171l32 187h185l-31 -187h-186z" />
<glyph unicode="&#xe5;" horiz-adv-x="1239" d="M156 434q0 116 44.5 219.5t119 177.5t175.5 117t210 43q122 0 215.5 -58t144.5 -155l35 195h164l-172 -973h-164l26 152q-71 -79 -163 -124.5t-195 -45.5q-190 0 -315 131t-125 321zM315 444q0 -129 90.5 -220t233.5 -91q149 0 261 114.5t112 278.5q0 131 -87 222.5 t-223 91.5q-159 0 -273 -114.5t-114 -281.5zM598 1260q0 98 73 171.5t183 73.5q92 0 149.5 -53t57.5 -137q0 -98 -73.5 -172t-184.5 -74q-90 0 -147.5 53.5t-57.5 137.5zM713 1272q0 -42 27 -70t73 -28q57 0 96 39t39 92q0 41 -28 68.5t-74 27.5q-57 0 -95 -39t-38 -90z" />
<glyph unicode="&#xe6;" horiz-adv-x="2000" d="M156 434q0 116 44.5 219.5t119 177.5t175.5 117t210 43q122 0 215.5 -58t144.5 -155l35 195h155l-24 -139q72 74 166 115.5t198 41.5q194 0 313.5 -126t119.5 -316q0 -47 -15 -109h-827q2 -131 88.5 -221t224.5 -90q173 0 299 135l109 -96q-174 -186 -418 -186 q-131 0 -225.5 58.5t-145.5 160.5l-35 -201h-155l26 152q-71 -79 -163 -124.5t-195 -45.5q-190 0 -315 131t-125 321zM315 444q0 -129 90.5 -220t233.5 -91q149 0 261 114.5t112 278.5q0 131 -87 222.5t-223 91.5q-159 0 -273 -114.5t-114 -281.5zM1200 559h668 q-9 125 -90 205t-219 80q-122 0 -223 -79.5t-136 -205.5z" />
<glyph unicode="&#xe7;" horiz-adv-x="1069" d="M156 434q0 154 75.5 282.5t203 201.5t278.5 73q134 0 242.5 -63.5t166.5 -171.5l-141 -76q-39 74 -113.5 117t-171.5 43q-156 0 -268.5 -114.5t-112.5 -281.5q0 -130 88 -220.5t230 -90.5q90 0 171 41.5t134 112.5l125 -86q-72 -98 -186.5 -156t-243.5 -63l-43 -82h33 q72 0 120 -51t48 -130q0 -100 -73 -163.5t-192 -63.5q-144 0 -209 92l93 84q12 -31 45 -49t77 -18q59 0 92 29t33 81q0 39 -24 62.5t-70 23.5h-139l100 193q-162 31 -265 155t-103 289z" />
<glyph unicode="&#xe8;" horiz-adv-x="1132" d="M156 434q0 154 76 283t202 201.5t271 72.5q198 0 326 -127t128 -315q0 -51 -14 -109h-830q2 -132 91 -221.5t235 -89.5q163 0 287 133l112 -96q-175 -184 -426 -184q-195 0 -326.5 131.5t-131.5 320.5zM338 582h657q-16 113 -98.5 187.5t-208.5 74.5q-118 0 -215 -72.5 t-135 -189.5zM543 1307l82 133l403 -242l-74 -123z" />
<glyph unicode="&#xe9;" horiz-adv-x="1132" d="M156 434q0 154 76 283t202 201.5t271 72.5q198 0 326 -127t128 -315q0 -51 -14 -109h-830q2 -132 91 -221.5t235 -89.5q163 0 287 133l112 -96q-175 -184 -426 -184q-195 0 -326.5 131.5t-131.5 320.5zM338 582h657q-16 113 -98.5 187.5t-208.5 74.5q-118 0 -215 -72.5 t-135 -189.5zM516 1206l488 242l53 -141l-492 -230z" />
<glyph unicode="&#xea;" horiz-adv-x="1132" d="M156 434q0 154 76 283t202 201.5t271 72.5q198 0 326 -127t128 -315q0 -51 -14 -109h-830q2 -132 91 -221.5t235 -89.5q163 0 287 133l112 -96q-175 -184 -426 -184q-195 0 -326.5 131.5t-131.5 320.5zM338 582h657q-16 113 -98.5 187.5t-208.5 74.5q-118 0 -215 -72.5 t-135 -189.5zM381 1223l379 254h51l291 -254l-92 -107l-240 201l-324 -213z" />
<glyph unicode="&#xeb;" horiz-adv-x="1132" d="M156 434q0 154 76 283t202 201.5t271 72.5q198 0 326 -127t128 -315q0 -51 -14 -109h-830q2 -132 91 -221.5t235 -89.5q163 0 287 133l112 -96q-175 -184 -426 -184q-195 0 -326.5 131.5t-131.5 320.5zM338 582h657q-16 113 -98.5 187.5t-208.5 74.5q-118 0 -215 -72.5 t-135 -189.5zM477 1171l33 187h186l-32 -187h-187zM889 1171l33 187h186l-33 -187h-186z" />
<glyph unicode="&#xec;" horiz-adv-x="464" d="M152 0l172 973h163l-172 -973h-163zM207 1307l82 133l401 -242l-72 -123z" />
<glyph unicode="&#xed;" horiz-adv-x="464" d="M152 0l172 973h163l-172 -973h-163zM178 1206l490 242l51 -141l-490 -230z" />
<glyph unicode="&#xee;" horiz-adv-x="464" d="M88 1223l379 254h53l289 -254l-92 -107l-238 201l-325 -213zM152 0l172 973h163l-172 -973h-163z" />
<glyph unicode="&#xef;" horiz-adv-x="464" d="M141 1171l33 187h184l-32 -187h-185zM152 0l172 973h163l-172 -973h-163zM553 1171l33 187h184l-33 -187h-184z" />
<glyph unicode="&#xf0;" horiz-adv-x="1187" d="M154 422q0 150 76 275.5t200.5 196.5t265.5 71q122 0 212 -47.5t139 -139.5q-10 128 -61.5 228.5t-135.5 164.5l-119 -137l-104 66l114 133q-88 39 -204 39l24 131q161 0 279 -53l116 135l105 -66l-113 -133q126 -95 189 -255.5t63 -366.5q0 -311 -155 -496.5 t-429 -185.5q-195 0 -328.5 128t-133.5 312zM313 432q0 -125 91 -212t235 -87q156 0 272.5 110t116.5 269q0 126 -91 213.5t-235 87.5q-158 0 -273.5 -110.5t-115.5 -270.5z" />
<glyph unicode="&#xf1;" horiz-adv-x="1173" d="M152 0l172 973h159l-30 -168q59 90 151 138t199 48q186 0 276.5 -111t53.5 -321l-99 -559h-164l97 541q25 143 -32 221t-181 78q-75 0 -143 -30t-123 -97.5t-76 -163.5l-97 -549h-163zM424 1155q14 110 79.5 176t162.5 66q47 0 90.5 -16.5t71 -36t63.5 -36t70 -16.5 q99 0 116 99h129q-17 -111 -80 -175.5t-157 -64.5q-49 0 -94 16.5t-72.5 35.5t-62.5 35.5t-68 16.5q-101 0 -119 -100h-129z" />
<glyph unicode="&#xf2;" horiz-adv-x="1175" d="M160 434q0 154 77.5 282.5t207 201.5t280.5 73q198 0 332.5 -132t134.5 -322q0 -153 -77.5 -281.5t-207 -201t-280.5 -72.5q-198 0 -332.5 131.5t-134.5 320.5zM319 444q0 -129 90.5 -220t233.5 -91q158 0 273.5 114t115.5 279q0 131 -90.5 222.5t-234.5 91.5 q-156 0 -272 -115t-116 -281zM561 1307l82 133l404 -242l-74 -123z" />
<glyph unicode="&#xf3;" horiz-adv-x="1175" d="M160 434q0 154 77.5 282.5t207 201.5t280.5 73q198 0 332.5 -132t134.5 -322q0 -153 -77.5 -281.5t-207 -201t-280.5 -72.5q-198 0 -332.5 131.5t-134.5 320.5zM319 444q0 -129 90.5 -220t233.5 -91q158 0 273.5 114t115.5 279q0 131 -90.5 222.5t-234.5 91.5 q-156 0 -272 -115t-116 -281zM535 1206l487 242l53 -141l-491 -230z" />
<glyph unicode="&#xf4;" horiz-adv-x="1175" d="M160 434q0 154 77.5 282.5t207 201.5t280.5 73q198 0 332.5 -132t134.5 -322q0 -153 -77.5 -281.5t-207 -201t-280.5 -72.5q-198 0 -332.5 131.5t-134.5 320.5zM319 444q0 -129 90.5 -220t233.5 -91q158 0 273.5 114t115.5 279q0 131 -90.5 222.5t-234.5 91.5 q-156 0 -272 -115t-116 -281zM444 1223l377 254h53l291 -254l-92 -107l-239 201l-324 -213z" />
<glyph unicode="&#xf5;" horiz-adv-x="1175" d="M160 434q0 154 77.5 282.5t207 201.5t280.5 73q198 0 332.5 -132t134.5 -322q0 -153 -77.5 -281.5t-207 -201t-280.5 -72.5q-198 0 -332.5 131.5t-134.5 320.5zM319 444q0 -129 90.5 -220t233.5 -91q158 0 273.5 114t115.5 279q0 131 -90.5 222.5t-234.5 91.5 q-156 0 -272 -115t-116 -281zM422 1155q14 110 79.5 176t162.5 66q47 0 90.5 -16.5t70.5 -36t63 -36t70 -16.5q100 0 117 99h129q-17 -111 -80 -175.5t-157 -64.5q-49 0 -94 16.5t-72.5 35.5t-63 35.5t-69.5 16.5q-99 0 -117 -100h-129z" />
<glyph unicode="&#xf6;" horiz-adv-x="1175" d="M160 434q0 154 77.5 282.5t207 201.5t280.5 73q198 0 332.5 -132t134.5 -322q0 -153 -77.5 -281.5t-207 -201t-280.5 -72.5q-198 0 -332.5 131.5t-134.5 320.5zM319 444q0 -129 90.5 -220t233.5 -91q158 0 273.5 114t115.5 279q0 131 -90.5 222.5t-234.5 91.5 q-156 0 -272 -115t-116 -281zM496 1171l32 187h187l-33 -187h-186zM907 1171l33 187h186l-32 -187h-187z" />
<glyph unicode="&#xf7;" d="M254 549l29 156h946l-29 -156h-946zM561 262q0 48 35.5 83.5t87.5 35.5q44 0 73 -28t29 -72q0 -48 -34.5 -83.5t-85.5 -35.5q-46 0 -75.5 28t-29.5 72zM688 971q0 48 35 83.5t86 35.5q44 0 73 -28.5t29 -72.5q0 -48 -34.5 -83.5t-85.5 -35.5q-44 0 -73.5 28.5t-29.5 72.5 z" />
<glyph unicode="&#xf8;" horiz-adv-x="1208" d="M78 51l168 142q-70 109 -70 241q0 154 77 282.5t206 201.5t280 73q183 0 314 -112l168 143l82 -100l-166 -142q71 -110 71 -243q0 -153 -77.5 -281.5t-207 -201t-280.5 -72.5q-182 0 -313 112l-170 -143zM334 444q0 -80 35 -145l559 475q-85 66 -205 66q-157 0 -273 -115 t-116 -281zM453 201q84 -68 206 -68q158 0 274 114t116 279q0 83 -37 150z" />
<glyph unicode="&#xf9;" horiz-adv-x="1169" d="M207 414l98 559h164l-96 -541q-25 -143 32 -221t181 -78q56 0 109 17.5t100 52t82 91.5t51 130l96 549h164l-172 -973h-160l31 168q-59 -90 -151 -138t-199 -48q-186 0 -276.5 111t-53.5 321zM567 1307l82 133l402 -242l-74 -123z" />
<glyph unicode="&#xfa;" horiz-adv-x="1169" d="M207 414l98 559h164l-96 -541q-25 -143 32 -221t181 -78q56 0 109 17.5t100 52t82 91.5t51 130l96 549h164l-172 -973h-160l31 168q-59 -90 -151 -138t-199 -48q-186 0 -276.5 111t-53.5 321zM539 1206l487 242l53 -141l-491 -230z" />
<glyph unicode="&#xfb;" horiz-adv-x="1169" d="M207 414l98 559h164l-96 -541q-25 -143 32 -221t181 -78q56 0 109 17.5t100 52t82 91.5t51 130l96 549h164l-172 -973h-160l31 168q-59 -90 -151 -138t-199 -48q-186 0 -276.5 111t-53.5 321zM449 1223l378 254h52l290 -254l-92 -107l-239 201l-324 -213z" />
<glyph unicode="&#xfc;" horiz-adv-x="1169" d="M207 414l98 559h164l-96 -541q-25 -143 32 -221t181 -78q56 0 109 17.5t100 52t82 91.5t51 130l96 549h164l-172 -973h-160l31 168q-59 -90 -151 -138t-199 -48q-186 0 -276.5 111t-53.5 321zM502 1171l30 187h187l-33 -187h-184zM913 1171l31 187h186l-32 -187h-185z " />
<glyph unicode="&#xfd;" horiz-adv-x="1062" d="M168 -451l281 449l-256 975h176l198 -778l451 778h192l-868 -1424h-174zM475 1206l490 242l51 -141l-490 -230z" />
<glyph unicode="&#xfe;" horiz-adv-x="1245" d="M72 -451l323 1833h164l-98 -561q71 79 163 124.5t195 45.5q190 0 315.5 -131.5t125.5 -322.5q0 -153 -75.5 -281.5t-201.5 -201t-272 -72.5q-122 0 -216 58t-145 155l-114 -646h-164zM403 444q0 -129 87 -220t223 -91q159 0 273 114t114 279q0 131 -90.5 222.5 t-233.5 91.5q-149 0 -261 -115t-112 -281z" />
<glyph unicode="&#xff;" horiz-adv-x="1062" d="M168 -451l281 449l-256 975h176l198 -778l451 778h192l-868 -1424h-174zM438 1171l33 187h186l-32 -187h-187zM850 1171l33 187h186l-33 -187h-186z" />
<glyph unicode="&#x152;" horiz-adv-x="2156" d="M195 573q0 160 61 304t164.5 247.5t246.5 164.5t302 61q163 0 295 -68.5t211 -189.5l41 237h778l-25 -158h-614l-74 -415h557l-29 -154h-555l-77 -444h616l-27 -158h-784l31 176q-105 -92 -238 -143t-280 -51q-260 0 -430 167t-170 424zM369 588q0 -194 122 -321.5 t320 -127.5q159 0 293 78.5t212.5 216.5t78.5 305q0 194 -122 323.5t-321 129.5q-160 0 -294.5 -80.5t-211.5 -219.5t-77 -304z" />
<glyph unicode="&#x153;" horiz-adv-x="2007" d="M160 434q0 154 77.5 282.5t207 201.5t280.5 73q133 0 241.5 -63.5t168.5 -169.5q76 108 194 170.5t252 62.5q198 0 326.5 -127t128.5 -315q0 -39 -17 -109h-827q2 -132 90.5 -221.5t233.5 -89.5q161 0 288 133l113 -96q-175 -184 -428 -184q-131 0 -237.5 63.5 t-164.5 169.5q-79 -108 -200.5 -170.5t-259.5 -62.5q-198 0 -332.5 131.5t-134.5 320.5zM319 444q0 -129 90.5 -220t233.5 -91q158 0 273.5 114t115.5 279q0 131 -90.5 222.5t-234.5 91.5q-156 0 -272 -115t-116 -281zM1214 582h658q-16 113 -98.5 187.5t-208.5 74.5 q-118 0 -215.5 -72.5t-135.5 -189.5z" />
<glyph unicode="&#x178;" horiz-adv-x="1271" d="M266 1329h187l301 -633l520 633h196l-655 -784l-94 -545h-170l96 547zM586 1520l37 206h206l-34 -206h-209zM1010 1520l34 206h209l-36 -206h-207z" />
<glyph unicode="&#x2c6;" horiz-adv-x="1228" d="M338 1223l379 254h53l291 -254l-94 -107l-238 201l-323 -213z" />
<glyph unicode="&#x2dc;" horiz-adv-x="1228" d="M326 1155q14 110 79 176t162 66q47 0 90.5 -16.5t71 -36t63.5 -36t70 -16.5q100 0 117 99h129q-17 -111 -80.5 -175.5t-157.5 -64.5q-49 0 -94 16.5t-72.5 35.5t-62.5 35.5t-68 16.5q-100 0 -118 -100h-129z" />
<glyph unicode="&#x2000;" horiz-adv-x="945" />
<glyph unicode="&#x2001;" horiz-adv-x="1890" />
<glyph unicode="&#x2002;" horiz-adv-x="945" />
<glyph unicode="&#x2003;" horiz-adv-x="1890" />
<glyph unicode="&#x2004;" horiz-adv-x="630" />
<glyph unicode="&#x2005;" horiz-adv-x="472" />
<glyph unicode="&#x2006;" horiz-adv-x="315" />
<glyph unicode="&#x2007;" horiz-adv-x="315" />
<glyph unicode="&#x2008;" horiz-adv-x="236" />
<glyph unicode="&#x2009;" horiz-adv-x="378" />
<glyph unicode="&#x200a;" horiz-adv-x="105" />
<glyph unicode="&#x2010;" horiz-adv-x="831" d="M207 479l26 152h588l-24 -152h-590z" />
<glyph unicode="&#x2011;" horiz-adv-x="831" d="M207 479l26 152h588l-24 -152h-590z" />
<glyph unicode="&#x2012;" horiz-adv-x="831" d="M207 479l26 152h588l-24 -152h-590z" />
<glyph unicode="&#x2013;" horiz-adv-x="1142" d="M207 479l26 152h900l-27 -152h-899z" />
<glyph unicode="&#x2014;" horiz-adv-x="1576" d="M207 479l26 152h1334l-27 -152h-1333z" />
<glyph unicode="&#x2018;" horiz-adv-x="401" d="M264 1012l178 350h119l-127 -350h-170z" />
<glyph unicode="&#x2019;" horiz-adv-x="389" d="M274 999l125 351h170l-178 -351h-117z" />
<glyph unicode="&#x201a;" horiz-adv-x="407" d="M43 -162l127 350h170l-178 -350h-119z" />
<glyph unicode="&#x201c;" horiz-adv-x="692" d="M264 999l178 351h119l-127 -351h-170zM555 999l178 351h117l-125 -351h-170z" />
<glyph unicode="&#x201d;" horiz-adv-x="679" d="M274 999l125 351h170l-178 -351h-117zM563 999l127 351h170l-178 -351h-119z" />
<glyph unicode="&#x201e;" horiz-adv-x="696" d="M43 -162l127 350h170l-178 -350h-119zM334 -162l125 350h170l-176 -350h-119z" />
<glyph unicode="&#x2022;" horiz-adv-x="747" d="M244 432l71 410h412l-74 -410h-409z" />
<glyph unicode="&#x2026;" horiz-adv-x="1243" d="M121 0l35 195h196l-35 -195h-196zM524 0l33 195h197l-35 -195h-195zM926 0l32 195h197l-33 -195h-196z" />
<glyph unicode="&#x202f;" horiz-adv-x="378" />
<glyph unicode="&#x2039;" horiz-adv-x="632" d="M154 475l344 348h176l-350 -354l215 -340h-164z" />
<glyph unicode="&#x203a;" horiz-adv-x="632" d="M127 129l350 354l-215 340h164l221 -348l-344 -346h-176z" />
<glyph unicode="&#x205f;" horiz-adv-x="472" />
<glyph unicode="&#x20ac;" horiz-adv-x="1263" d="M137 459l64 125h151q7 88 23 155h-158l64 127h133q86 223 263 353.5t406 130.5q104 0 183 -21t151 -69l-98 -140q-110 72 -258 72q-151 0 -275 -88t-194 -238h567l-63 -127h-551q-19 -79 -25 -155h512l-63 -125h-447q15 -151 106 -236.5t249 -85.5q146 0 282 72l47 -139 q-162 -90 -354 -90q-221 0 -356 132t-146 347h-213z" />
<glyph unicode="&#x2122;" horiz-adv-x="1521" d="M274 1214l21 115h553l-23 -115h-209l-90 -505h-127l88 505h-213zM840 709l110 620h176l68 -481l238 481h180l-109 -620h-119l78 450h-6l-223 -450h-123l-63 450h-7l-79 -450h-121z" />
<glyph unicode="&#x25fc;" horiz-adv-x="972" d="M0 0v973h973v-973h-973z" />
</font>
</defs>
</svg>
