<?xml version="1.0" standalone="no"?>
<!DOCTYPE svg PUBLIC "-//W3C//DTD SVG 1.1//EN" "http://www.w3.org/Graphics/SVG/1.1/DTD/svg11.dtd" >
<svg xmlns="http://www.w3.org/2000/svg" xmlns:xlink="http://www.w3.org/1999/xlink" version="1.1">
<metadata></metadata>
<defs>
<font id="f37_moonregular" horiz-adv-x="1261" >
<font-face units-per-em="2048" ascent="1638" descent="-410" />
<missing-glyph horiz-adv-x="468" />
<glyph unicode="&#xfb01;" horiz-adv-x="1110" d="M66 815v158h145v33q0 203 105 300t280 97q26 0 49 -2v-158q-20 2 -45 2q-53 0 -90.5 -9.5t-69.5 -34t-48.5 -73.5t-16.5 -122v-33h586v-973h-164v815h-422v-815h-164v815h-145zM788 1171v185h181v-185h-181z" />
<glyph unicode="&#xfb02;" horiz-adv-x="1110" d="M66 815v158h145v33q0 203 105 300t280 97q26 0 49 -2v-158q-20 2 -45 2q-53 0 -90.5 -9.5t-69.5 -34t-48.5 -73.5t-16.5 -122v-33h420v409h163v-1382h-163v815h-420v-815h-164v815h-145z" />
<glyph horiz-adv-x="0" />
<glyph horiz-adv-x="682" />
<glyph unicode=" "  horiz-adv-x="468" />
<glyph unicode="&#x09;" horiz-adv-x="468" />
<glyph unicode="&#xa0;" horiz-adv-x="468" />
<glyph unicode="!" horiz-adv-x="485" d="M152 0v184h182v-184h-182zM160 881v448h166v-448l-35 -488h-96z" />
<glyph unicode="&#x22;" horiz-adv-x="661" d="M100 1350h170l-24 -351h-119zM391 1350h170l-26 -351h-119z" />
<glyph unicode="#" horiz-adv-x="1124" d="M76 406v141h217l53 250h-190v141h221l57 264h131l-57 -264h229l58 264h129l-58 -264h183v-141h-213l-54 -250h187v-141h-217l-58 -265h-129l58 265h-230l-57 -265h-131l57 265h-186zM424 547h229l54 250h-230z" />
<glyph unicode="$" horiz-adv-x="1081" d="M57 199l113 104q120 -147 307 -168v498q-47 16 -79.5 28t-75 32t-71 39.5t-58.5 47.5t-48 59.5t-29.5 73.5t-11.5 91q0 149 102.5 237.5t270.5 104.5v217h141v-217q116 -10 212.5 -61.5t158.5 -133.5l-106 -107q-103 128 -265 152v-451q68 -22 114.5 -41.5t102.5 -53.5 t90 -72.5t57.5 -98t23.5 -131.5q0 -160 -107 -253t-281 -109v-217h-141v215q-273 21 -420 215zM266 1004q0 -77 54.5 -124.5t156.5 -84.5v401q-99 -14 -155 -63.5t-56 -128.5zM618 135q108 14 167 66.5t59 138.5q0 92 -59 148t-167 96v-449z" />
<glyph unicode="%" horiz-adv-x="1636" d="M59 977q0 158 91.5 260t234.5 102t235.5 -102t92.5 -260t-93 -261.5t-235 -103.5t-234 103t-92 262zM188 977q0 -107 56 -175.5t141 -66.5q86 -1 141.5 67t55.5 175q0 106 -55.5 174t-141.5 68q-85 0 -141 -68.5t-56 -173.5zM424 0l645 1329h143l-645 -1329h-143z M924 356q0 158 92 260.5t235 102.5q142 0 234 -102.5t92 -260.5t-91.5 -260t-234.5 -102t-235 102t-92 260zM1055 356q0 -107 55 -174.5t141 -66.5q85 -2 141 66t56 175q0 105 -56 173.5t-141 68.5q-86 0 -141 -68t-55 -174z" />
<glyph unicode="&#x26;" horiz-adv-x="1236" d="M92 371q0 248 234 331q-197 86 -197 297q0 159 114 255t328 96q77 0 150 -9v-157q-82 10 -141 10q-135 0 -208 -59.5t-73 -151.5t57 -148.5t172 -56.5h295v223h160v-223h178v-155h-178v-467h178v-156h-602q-218 0 -342.5 101.5t-124.5 269.5zM264 389q0 -108 75 -170.5 t220 -62.5h264v467h-299q-122 0 -191 -65t-69 -169z" />
<glyph unicode="'" horiz-adv-x="372" d="M100 1350h170l-24 -351h-119z" />
<glyph unicode="(" horiz-adv-x="624" d="M82 520q0 281 117 492.5t313 343.5l90 -123q-350 -261 -350 -713q0 -449 350 -710l-90 -123q-196 132 -313 342.5t-117 490.5z" />
<glyph unicode=")" horiz-adv-x="624" d="M23 -190q350 264 350 710q0 449 -350 713l90 123q196 -131 312 -342.5t116 -493.5q0 -280 -116 -491t-312 -342z" />
<glyph unicode="*" horiz-adv-x="724" d="M88 956l184 88l-184 91l59 104l170 -117l-16 205h123l-16 -205l170 117l59 -104l-184 -91l184 -88l-59 -104l-170 115l16 -203h-123l16 203l-170 -115z" />
<glyph unicode="+" d="M158 549v156h395v395h156v-395h395v-156h-395v-395h-156v395h-395z" />
<glyph unicode="," horiz-adv-x="405" d="M84 -180l45 368h174l-96 -368h-123z" />
<glyph unicode="-" horiz-adv-x="831" d="M121 479v152h590v-152h-590z" />
<glyph unicode="." horiz-adv-x="438" d="M121 0v195h196v-195h-196z" />
<glyph unicode="/" horiz-adv-x="712" d="M61 0l431 1329h159l-432 -1329h-158z" />
<glyph unicode="0" horiz-adv-x="1177" d="M121 453v424q0 206 127.5 339.5t339.5 133.5t340.5 -133.5t128.5 -339.5v-424q0 -205 -128.5 -338t-340.5 -133t-339.5 133t-127.5 338zM289 465q0 -147 80 -231t219 -84q140 0 219.5 83.5t79.5 231.5v399q0 148 -80 233t-219 85q-138 0 -218.5 -85t-80.5 -233v-399z" />
<glyph unicode="1" horiz-adv-x="614" d="M63 1163v166h377v-1329h-178v1163h-199z" />
<glyph unicode="2" horiz-adv-x="1042" d="M86 0v127l504 555q42 47 64 74t47.5 66t36 77t10.5 82q0 93 -61 151t-171 58q-117 0 -183.5 -71t-66.5 -206h-168q0 209 115.5 323t306.5 114q186 0 290.5 -102t104.5 -271q0 -112 -53.5 -203.5t-165.5 -212.5l-356 -393h614v-168h-868z" />
<glyph unicode="3" horiz-adv-x="1034" d="M59 276l136 80q75 -221 307 -221q123 0 197.5 68t74.5 178q0 115 -78.5 180.5t-214.5 65.5h-61l-70 112l344 435h-575v155h786v-135l-346 -434q175 -20 276 -120t101 -257q0 -179 -120.5 -290t-313.5 -111q-160 0 -274.5 75.5t-168.5 218.5z" />
<glyph unicode="4" horiz-adv-x="1130" d="M49 299v117l418 913h180l-395 -870h459v370h172v-370h198v-160h-198v-299h-172v299h-662z" />
<glyph unicode="5" horiz-adv-x="1032" d="M68 281l141 79q72 -221 303 -221q123 0 197.5 68.5t74.5 181.5q0 122 -78 192t-214 70h-347l48 678h688v-160h-533l-26 -358h180q198 0 323 -114t125 -306q0 -184 -122 -296.5t-316 -112.5q-159 0 -274.5 77t-169.5 222z" />
<glyph unicode="6" horiz-adv-x="1081" d="M86 424q0 147 117 332l348 573h199l-316 -512q71 45 164 45q171 0 296.5 -129t125.5 -309q0 -184 -134.5 -313t-332.5 -129q-197 0 -332 128.5t-135 313.5zM254 420q0 -118 84 -199.5t215 -81.5t215 81.5t84 199.5q0 122 -85 207.5t-214 85.5t-214 -85.5t-85 -207.5z" />
<glyph unicode="7" horiz-adv-x="987" d="M47 1163v166h891v-147l-576 -1182h-196l579 1163h-698z" />
<glyph unicode="8" horiz-adv-x="1122" d="M92 385q0 128 62.5 220t169.5 138q-72 41 -113 108.5t-41 154.5q0 153 108.5 248.5t282.5 95.5t282.5 -95.5t108.5 -248.5q0 -87 -40.5 -154.5t-112.5 -108.5q107 -46 169 -138t62 -220q0 -178 -134 -290.5t-335 -112.5t-335 112.5t-134 290.5zM258 397q0 -118 85.5 -188 t217.5 -70t217.5 70t85.5 188q0 119 -85.5 192t-217.5 73t-217.5 -73t-85.5 -192zM334 997q0 -91 65 -143.5t162 -52.5t162 52.5t65 141.5q0 91 -64.5 148t-162.5 57q-97 0 -162 -56t-65 -147z" />
<glyph unicode="9" horiz-adv-x="1081" d="M61 905q0 184 134.5 313.5t332.5 129.5q197 0 332 -129t135 -314q0 -149 -116 -332l-349 -573h-198l315 512q-71 -45 -164 -45q-171 0 -296.5 129t-125.5 309zM229 909q0 -122 85 -207.5t214 -85.5t214 85.5t85 207.5q0 118 -84 199.5t-215 81.5t-215 -81.5t-84 -199.5z " />
<glyph unicode=":" horiz-adv-x="440" d="M123 0v195h196v-195h-196zM123 729v195h196v-195h-196z" />
<glyph unicode=";" horiz-adv-x="485" d="M121 -180l45 368h174l-96 -368h-123zM152 729v195h196v-195h-196z" />
<glyph unicode="&#x3c;" d="M297 649l532 541l115 -111l-430 -430l430 -432l-115 -111z" />
<glyph unicode="=" d="M158 354v156h946v-156h-946zM158 764v156h946v-156h-946z" />
<glyph unicode="&#x3e;" d="M317 217l431 432l-431 430l115 111l533 -541l-533 -543z" />
<glyph unicode="?" horiz-adv-x="952" d="M57 922q0 204 114.5 316t301.5 112q183 0 288 -99t105 -254q0 -79 -33.5 -146.5t-81 -114t-94.5 -88t-80.5 -88.5t-33.5 -95v-72h-158v78q0 54 23.5 104t58.5 87t76.5 77.5t76.5 75t58.5 79.5t23.5 91q0 97 -61 154t-172 57q-114 0 -181 -70.5t-67 -203.5h-164zM375 0 v184h180v-184h-180z" />
<glyph unicode="@" horiz-adv-x="1900" d="M78 371q0 184 66 343t181.5 271t278.5 176t352 64q250 0 446.5 -106.5t304.5 -294t108 -421.5q0 -226 -99 -363.5t-262 -137.5q-212 0 -262 204q-107 -159 -301 -159q-155 0 -274 117.5t-119 291.5q0 88 33 166.5t88 132.5t126 85.5t146 31.5q104 0 180.5 -43.5 t116.5 -122.5v152h151v-565q0 -73 34 -109.5t91 -36.5q88 0 140.5 97.5t52.5 258.5q0 147 -50 272t-140.5 213.5t-222 138.5t-288.5 50q-321 0 -520.5 -195t-199.5 -511q0 -156 50.5 -287t140.5 -223t218.5 -143.5t280.5 -51.5q189 0 329 64l56 -140q-152 -73 -385 -73 q-182 0 -339.5 64t-269.5 176.5t-175.5 271.5t-63.5 342zM643 356q0 -110 78.5 -189t187.5 -79q114 0 192.5 78t78.5 192q0 115 -78.5 194t-192.5 79q-110 0 -188 -79.5t-78 -195.5z" />
<glyph unicode="A" horiz-adv-x="1269" d="M29 0l501 1329h207l504 -1329h-170l-125 328h-616l-123 -328h-178zM387 483h500l-250 668z" />
<glyph unicode="B" horiz-adv-x="1204" d="M170 0v1329h485q178 0 292 -98.5t114 -257.5q0 -182 -143 -285q192 -94 192 -309q0 -173 -114 -276t-300 -103h-526zM336 156h360q117 0 182.5 61t65.5 170q0 92 -61 155.5t-150 63.5h-397v-450zM336 756h377q77 0 128.5 60.5t51.5 148.5q0 87 -64.5 148t-166.5 61h-326 v-418z" />
<glyph unicode="C" horiz-adv-x="1374" d="M86 666q0 191 86 347t241 246.5t349 90.5q177 0 323.5 -80.5t237.5 -222.5l-141 -91q-69 111 -178 173.5t-242 62.5q-144 0 -260.5 -70.5t-181 -191t-64.5 -264.5t64.5 -264.5t181.5 -191.5t260 -71q133 0 242.5 62t177.5 172l141 -88q-90 -143 -236.5 -223t-324.5 -80 q-194 0 -349 90t-241 246t-86 348z" />
<glyph unicode="D" horiz-adv-x="1380" d="M170 0v1329h463q203 0 354.5 -88.5t229 -237.5t77.5 -337q0 -141 -46 -263t-130 -211.5t-209 -140.5t-276 -51h-463zM338 158h295q216 0 352.5 136t136.5 372q0 234 -136.5 369.5t-352.5 135.5h-295v-1013z" />
<glyph unicode="E" horiz-adv-x="1044" d="M170 0v1329h780v-158h-614v-415h557v-154h-557v-444h618v-158h-784z" />
<glyph unicode="F" horiz-adv-x="999" d="M170 0v1329h770v-158h-602v-440h549v-158h-549v-573h-168z" />
<glyph unicode="G" horiz-adv-x="1454" d="M86 666q0 191 86 347t241 246.5t349 90.5q148 0 277.5 -58.5t222.5 -161.5l-119 -118q-69 85 -167.5 132.5t-213.5 47.5q-144 0 -260.5 -70.5t-181 -191t-64.5 -264.5t64.5 -264.5t181.5 -191.5t260 -71q85 0 162.5 26t140.5 76t103 132t44 184h-413v141h583q4 -25 4 -73 q0 -182 -76.5 -328t-219.5 -230.5t-328 -84.5q-194 0 -349 90t-241 246t-86 348z" />
<glyph unicode="H" horiz-adv-x="1343" d="M170 0v1329h168v-569h666v569h167v-1329h-167v600h-666v-600h-168z" />
<glyph unicode="I" horiz-adv-x="507" d="M170 0v1329h168v-1329h-168z" />
<glyph unicode="J" horiz-adv-x="962" d="M25 143l98 123q59 -63 122 -95t146 -32q246 0 246 291v899h168v-911q0 -210 -109.5 -323t-298.5 -113q-225 0 -372 161z" />
<glyph unicode="K" horiz-adv-x="1193" d="M170 0v1329h166v-715l616 715h203l-522 -600l569 -729h-203l-475 602l-188 -217v-385h-166z" />
<glyph unicode="L" horiz-adv-x="978" d="M170 0v1329h182v-1167h592v-162h-774z" />
<glyph unicode="M" horiz-adv-x="1744" d="M170 0v1329h256l446 -1161l445 1161h256v-1329h-168v1110l-438 -1110h-189l-440 1108v-1108h-168z" />
<glyph unicode="N" horiz-adv-x="1476" d="M170 0v1329h172l797 -1061v1061h168v-1329h-166l-803 1071v-1071h-168z" />
<glyph unicode="O" horiz-adv-x="1521" d="M86 664q0 143 52 270t141.5 218.5t215 144.5t267.5 53q140 0 265 -52.5t214.5 -143t142 -218t52.5 -270.5q0 -145 -52.5 -272.5t-142.5 -217.5t-215 -142t-264 -52q-140 0 -264.5 52t-215 141.5t-143.5 216.5t-53 272zM256 662q0 -222 144.5 -372.5t361.5 -150.5 q142 0 258 69.5t181 189.5t65 266q0 223 -144.5 375.5t-359.5 152.5q-108 0 -202.5 -41.5t-161 -112.5t-104.5 -169t-38 -207z" />
<glyph unicode="P" horiz-adv-x="1116" d="M170 0v1329h436q200 0 327.5 -123t127.5 -305q0 -183 -125.5 -304.5t-329.5 -121.5h-268v-475h-168zM338 631h266q132 0 210.5 76t78.5 194t-79 195.5t-210 77.5h-266v-543z" />
<glyph unicode="Q" horiz-adv-x="1521" d="M86 664q0 143 52 270t141.5 218.5t215 144.5t267.5 53q140 0 265 -52.5t214.5 -143t142 -218t52.5 -270.5q0 -279 -181 -473l154 -160l-119 -107l-155 164q-164 -108 -373 -108q-140 0 -264.5 52t-215 141.5t-143.5 216.5t-53 272zM256 662q0 -222 144.5 -372.5 t361.5 -150.5q143 0 258 70l-260 272l119 107l262 -275q125 144 125 351q0 223 -144.5 375.5t-359.5 152.5q-108 0 -202.5 -41.5t-161 -112.5t-104.5 -169t-38 -207z" />
<glyph unicode="R" horiz-adv-x="1155" d="M170 0v1329h414q116 0 206 -30.5t145.5 -85t83.5 -125.5t28 -156q0 -142 -72.5 -245t-208.5 -140l319 -547h-194l-307 526h-252v-526h-162zM332 659h260q144 0 218.5 69.5t74.5 191.5t-74.5 191t-218.5 69h-260v-521z" />
<glyph unicode="S" horiz-adv-x="1099" d="M59 205l119 108q136 -174 371 -174q137 0 218 53t81 152q0 57 -25.5 101t-68 72.5t-98 51.5t-116.5 42.5t-122.5 40.5t-117 50.5t-98 67.5t-68 96.5t-25.5 132.5q0 166 126.5 258.5t323.5 92.5q139 0 256 -54t189 -151l-115 -111q-123 158 -330 158q-128 0 -204 -50 t-76 -143q0 -62 41 -106.5t106 -72t143.5 -52t157.5 -56t144 -74t106 -115.5t41 -171q0 -91 -36 -162.5t-100 -116t-147.5 -68t-181.5 -23.5q-331 0 -494 223z" />
<glyph unicode="T" horiz-adv-x="1105" d="M33 1171v158h1040v-158h-436v-1171h-168v1171h-436z" />
<glyph unicode="U" horiz-adv-x="1417" d="M156 549v780h168v-774q0 -212 102 -314t283 -102q180 0 283.5 102.5t103.5 313.5v774h168v-780q0 -277 -149.5 -422t-405.5 -145t-404.5 145t-148.5 422z" />
<glyph unicode="V" horiz-adv-x="1280" d="M29 1329h178l436 -1161l436 1161h172l-508 -1329h-204z" />
<glyph unicode="W" horiz-adv-x="1980" d="M29 1329h174l346 -1139l348 1139h188l349 -1139l346 1139h172l-418 -1329h-205l-340 1100l-340 -1100h-205z" />
<glyph unicode="X" horiz-adv-x="1181" d="M12 0l477 676l-460 653h196l367 -528l369 528h190l-461 -653l477 -676h-194l-383 551l-385 -551h-193z" />
<glyph unicode="Y" horiz-adv-x="1271" d="M33 1329h194l410 -633l410 633h190l-516 -784v-545h-170v547z" />
<glyph unicode="Z" horiz-adv-x="1089" d="M68 0v123l729 1051h-729v155h954v-123l-729 -1050h729v-156h-954z" />
<glyph unicode="[" horiz-adv-x="686" d="M168 -301v1630h475v-143h-309v-1344h309v-143h-475z" />
<glyph unicode="\" horiz-adv-x="712" d="M61 1329h160l430 -1329h-159z" />
<glyph unicode="]" horiz-adv-x="686" d="M41 -158h311v1344h-311v143h477v-1630h-477v143z" />
<glyph unicode="^" d="M172 602l367 727h184l367 -727h-166l-295 592l-291 -592h-166z" />
<glyph unicode="_" horiz-adv-x="1024" d="M82 -55h858v-154h-858v154z" />
<glyph unicode="`" horiz-adv-x="1228" d="M123 1307l67 137l445 -242l-62 -127z" />
<glyph unicode="a" horiz-adv-x="1239" d="M78 483q0 107 41 203t108 162t154.5 104.5t179.5 38.5q130 0 223 -54t144 -153v189h162v-973h-164v178q-117 -196 -365 -196q-91 0 -178.5 37.5t-155 102t-108.5 159.5t-41 202zM236 483q0 -146 101.5 -248t246.5 -102q148 0 250 101t102 249q0 151 -102 254t-250 103 q-145 0 -246.5 -103.5t-101.5 -253.5z" />
<glyph unicode="b" horiz-adv-x="1245" d="M152 0v1382h159v-589q51 96 150 147t209 51q137 0 251.5 -68.5t180 -185.5t65.5 -256q0 -101 -39.5 -193.5t-106 -159.5t-159 -106.5t-194.5 -39.5q-112 0 -205.5 50t-151.5 136v-168h-159zM311 481q0 -150 101 -249t250 -99q145 0 246.5 103t101.5 245q0 148 -101 253.5 t-247 105.5q-149 0 -250 -102.5t-101 -256.5z" />
<glyph unicode="c" horiz-adv-x="1069" d="M78 487q0 211 148.5 358.5t361.5 147.5q132 0 244.5 -60t183.5 -167l-133 -80q-51 74 -127 114t-168 40q-149 0 -250.5 -102.5t-101.5 -250.5q0 -149 101.5 -251.5t250.5 -102.5q93 0 171.5 41.5t129.5 116.5l131 -80q-71 -108 -184.5 -168.5t-247.5 -60.5 q-140 0 -257.5 67t-185 183.5t-67.5 254.5z" />
<glyph unicode="d" horiz-adv-x="1245" d="M78 481q0 139 65.5 256t180 185.5t251.5 68.5q109 0 208.5 -50.5t152.5 -147.5v589h158v-1382h-158v168q-60 -87 -153 -136.5t-203 -49.5q-137 0 -252.5 67t-182.5 182t-67 250zM236 481q0 -142 101.5 -245t246.5 -103q149 0 250.5 99t101.5 249q0 154 -101.5 256.5 t-250.5 102.5q-146 0 -247 -105.5t-101 -253.5z" />
<glyph unicode="e" horiz-adv-x="1132" d="M78 485q0 137 63 252.5t178 184.5t256 69q135 0 247.5 -67.5t176.5 -181t64 -246.5q0 -35 -4 -58h-823q14 -137 110.5 -224t241.5 -87q94 0 173 35.5t128 103.5l110 -86q-66 -93 -174.5 -145.5t-234.5 -52.5q-216 0 -364 145t-148 358zM244 580h655q-19 118 -110.5 192 t-215.5 74q-121 0 -212 -73.5t-117 -192.5z" />
<glyph unicode="f" horiz-adv-x="677" d="M66 815v158h145v33q0 203 105 300t280 97q26 0 49 -2v-158q-20 2 -45 2q-53 0 -90.5 -9.5t-69.5 -34t-48.5 -73.5t-16.5 -122v-33h270v-158h-270v-815h-164v815h-145z" />
<glyph unicode="g" horiz-adv-x="1239" d="M80 483q0 107 41 203t108 162t154.5 104.5t179.5 38.5q130 0 223 -54t144 -153v189h162v-901q0 -258 -140 -400.5t-391 -142.5q-242 0 -418 115l62 139q164 -102 350 -102q175 0 274 100t99 285v112q-117 -196 -365 -196q-91 0 -178.5 37.5t-155 102t-108.5 159.5 t-41 202zM238 483q0 -146 101.5 -248t246.5 -102q148 0 250 101t102 249q0 151 -102 254t-250 103q-145 0 -246.5 -103.5t-101.5 -253.5z" />
<glyph unicode="h" horiz-adv-x="1173" d="M152 0v1382h159v-585q42 94 129.5 144t204.5 50q173 0 281 -103.5t108 -287.5v-600h-164v541q0 141 -70.5 220t-193.5 79t-207 -80t-84 -232v-528h-163z" />
<glyph unicode="i" horiz-adv-x="464" d="M141 1171v185h183v-185h-183zM152 0v973h163v-973h-163z" />
<glyph unicode="j" horiz-adv-x="464" d="M-72 -309q20 -2 41 -2q87 0 135 46t48 159v1079h163v-1079q0 -365 -342 -365q-25 0 -45 2v160zM141 1171v185h181v-185h-181z" />
<glyph unicode="k" horiz-adv-x="997" d="M152 0v1382h163v-860l441 451h207l-400 -412l438 -561h-192l-356 446l-138 -141v-305h-163z" />
<glyph unicode="l" horiz-adv-x="464" d="M152 0v1382h163v-1382h-163z" />
<glyph unicode="m" horiz-adv-x="1802" d="M152 0v973h159v-168q46 93 127.5 139.5t186.5 46.5q120 0 204.5 -52.5t124.5 -150.5q99 203 344 203q171 0 268 -104t97 -283v-604h-164v541q0 144 -63 221.5t-183 77.5t-192 -79.5t-72 -232.5v-528h-164v541q0 144 -63 221.5t-184 77.5q-120 0 -191.5 -83t-71.5 -235 v-522h-163z" />
<glyph unicode="n" horiz-adv-x="1173" d="M152 0v973h159v-174q44 94 131 143t203 49q173 0 281 -103.5t108 -287.5v-600h-164v541q0 141 -70.5 220t-193.5 79t-207 -80t-84 -232v-528h-163z" />
<glyph unicode="o" horiz-adv-x="1175" d="M78 485q0 136 67.5 252.5t185 185t257.5 68.5t258 -68.5t186 -185t68 -252.5t-68.5 -252t-186.5 -183.5t-257 -67.5q-138 0 -255.5 67.5t-186 183.5t-68.5 252zM236 485q0 -141 103 -246.5t249 -105.5q147 0 250.5 105t103.5 247q0 141 -103 248t-251 107t-250 -107 t-102 -248z" />
<glyph unicode="p" horiz-adv-x="1245" d="M152 -451v1424h159v-180q51 96 150 147t209 51q137 0 251.5 -68.5t180 -185.5t65.5 -256q0 -101 -39.5 -193.5t-106 -159.5t-159 -106.5t-194.5 -39.5q-235 0 -357 186v-619h-159zM311 481q0 -150 101 -249t250 -99q145 0 246.5 103t101.5 245q0 148 -101 253.5 t-247 105.5q-149 0 -250 -102.5t-101 -256.5z" />
<glyph unicode="q" horiz-adv-x="1245" d="M78 481q0 139 65.5 256t180 185.5t251.5 68.5q109 0 208.5 -50.5t152.5 -147.5v180h158v-1424h-158v619q-125 -186 -356 -186q-137 0 -252.5 67t-182.5 182t-67 250zM236 481q0 -142 101.5 -245t246.5 -103q149 0 250.5 99t101.5 249q0 154 -101.5 256.5t-250.5 102.5 q-146 0 -247 -105.5t-101 -253.5z" />
<glyph unicode="r" horiz-adv-x="712" d="M152 0v973h165v-221q33 110 122.5 174.5t240.5 64.5v-180h-33q-151 -1 -241 -99q-89 -96 -89 -254v-7v-451h-165z" />
<glyph unicode="s" horiz-adv-x="880" d="M53 201l140 73q79 -153 266 -153q90 0 139 35.5t49 95.5q0 47 -30.5 80.5t-79 54t-107 38t-117.5 39.5t-107.5 51.5t-79 81t-30.5 120.5q0 130 96.5 203t247.5 73q112 0 205.5 -47.5t147.5 -140.5l-140 -76q-71 123 -219 123q-82 0 -128 -34t-46 -95q0 -42 30.5 -72 t79 -48t107 -34.5t117.5 -39.5t107.5 -54.5t79 -86.5t30.5 -130q0 -128 -96 -202t-260 -74q-145 0 -245 51.5t-157 167.5z" />
<glyph unicode="t" horiz-adv-x="657" d="M35 815v158h186v248h164v-248h252v-158h-252v-815h-164v815h-186z" />
<glyph unicode="u" horiz-adv-x="1169" d="M137 383v590h160v-557q0 -137 71 -213t195 -76q131 0 214 82t83 240v524h158v-973h-158v174q-42 -93 -128.5 -145t-207.5 -52q-175 0 -281 110t-106 296z" />
<glyph unicode="v" horiz-adv-x="1046" d="M27 973h172l325 -783l324 783h172l-410 -973h-174z" />
<glyph unicode="w" horiz-adv-x="1650" d="M29 973h178l266 -770l279 770h149l275 -770l268 770h178l-360 -973h-164l-273 756l-266 -756h-172z" />
<glyph unicode="x" horiz-adv-x="950" d="M16 0l367 504l-340 469h182l250 -344l250 344h182l-340 -471l367 -502h-184l-277 377l-272 -377h-185z" />
<glyph unicode="y" horiz-adv-x="1062" d="M23 973h182l336 -780l313 780h184l-616 -1424h-166l201 449z" />
<glyph unicode="z" horiz-adv-x="921" d="M76 0v147l575 680h-575v146h772v-148l-576 -680h576v-145h-772z" />
<glyph unicode="{" horiz-adv-x="690" d="M55 440v148q94 5 138.5 59.5t44.5 167.5v283q0 108 57 169.5t164 61.5h186v-143h-125q-64 0 -90.5 -35.5t-26.5 -101.5v-256q0 -221 -182 -279q182 -58 182 -278v-256q0 -66 26.5 -102t90.5 -36h125v-143h-186q-107 0 -164 62t-57 171v283q0 113 -44.5 166.5t-138.5 58.5 z" />
<glyph unicode="|" horiz-adv-x="499" d="M168 -174v1503h166v-1503h-166z" />
<glyph unicode="}" horiz-adv-x="690" d="M45 -158h125q64 0 90.5 36t26.5 102v256q0 220 182 278q-182 58 -182 279v256q0 66 -26.5 101.5t-90.5 35.5h-125v143h186q106 0 164 -62t58 -169v-283q0 -114 44 -168t138 -59v-148q-94 -5 -138 -58.5t-44 -166.5v-283q0 -109 -58 -171t-164 -62h-186v143z" />
<glyph unicode="~" d="M168 524q0 112 64.5 177t181.5 65q75 0 151.5 -24t145 -48t125.5 -24q106 0 106 96h158q0 -110 -64.5 -176t-177.5 -66q-63 0 -126.5 15t-107 33.5t-94 33.5t-90.5 15q-114 0 -114 -97h-158z" />
<glyph unicode="&#xa1;" horiz-adv-x="452" d="M135 788v185h182v-185h-182zM143 92l35 488h96l35 -488v-448h-166v448z" />
<glyph unicode="&#xa2;" horiz-adv-x="1017" d="M80 664q0 175 111 304.5t280 157.5v203h150v-201q102 -15 187 -70t142 -143l-135 -77q-43 69 -111 106t-153 37q-136 0 -225.5 -90.5t-89.5 -226.5q0 -135 89.5 -225.5t225.5 -90.5q86 0 156 39t114 111l131 -80q-57 -89 -142.5 -145.5t-188.5 -71.5v-201h-150v203 q-168 28 -279.5 158.5t-111.5 302.5z" />
<glyph unicode="&#xa3;" horiz-adv-x="1071" d="M94 0v141q50 46 75.5 71.5t57.5 63t46.5 68.5t25 72t10.5 88v18h-215v148h180q-10 22 -33 65t-35.5 71t-24 78t-11.5 107q0 158 108 258.5t295 100.5q190 0 303 -109.5t113 -302.5h-168q0 118 -66 185t-180 67q-111 0 -173 -58.5t-62 -152.5q0 -65 14 -114t48.5 -114 t41.5 -81h402v-148h-369v-10q0 -60 -13 -109.5t-41.5 -92t-56.5 -72t-73 -70.5h682v-168h-881z" />
<glyph unicode="&#xa4;" horiz-adv-x="1220" d="M102 291l146 145q-80 110 -80 254q0 145 78 256l-144 144l105 104l145 -143q112 73 260 73q147 0 256 -73l146 143l102 -104l-141 -142q80 -113 80 -258q0 -146 -80 -256l141 -143l-102 -105l-148 146q-112 -72 -254 -72q-143 0 -258 72l-147 -146zM322 690 q0 -126 82 -208.5t208 -82.5q125 0 207 82.5t82 208.5q0 127 -82 210t-207 83q-126 0 -208 -83t-82 -210z" />
<glyph unicode="&#xa5;" horiz-adv-x="1318" d="M55 1329h195l412 -633l409 633h189l-353 -534h279v-125h-361l-82 -125v-84h443v-125h-443v-336h-168v336h-440v125h440v86l-81 123h-359v125h277z" />
<glyph unicode="&#xa6;" horiz-adv-x="499" d="M168 -174v584h166v-584h-166zM168 745v584h166v-584h-166z" />
<glyph unicode="&#xa7;" horiz-adv-x="995" d="M90 580q0 181 178 256q-70 37 -108.5 91t-38.5 138q0 127 109 206t290 79q107 0 207 -42.5t160 -113.5l-103 -96q-102 116 -264 116q-118 0 -182 -41t-64 -106q0 -37 21.5 -66t58 -49.5t84 -38.5t100 -35.5t104.5 -36.5t99.5 -46.5t84 -61t58 -83.5t21.5 -111 q0 -178 -172 -254q141 -81 141 -230q0 -127 -108 -204.5t-291 -77.5q-108 0 -207 41.5t-159 111.5l104 97q49 -58 118.5 -86.5t143.5 -28.5q119 0 182.5 40.5t63.5 104.5q0 47 -35 82.5t-90.5 59.5t-123 47t-134.5 51t-122.5 63t-90.5 92.5t-35 131.5zM244 598 q0 -34 10 -62.5t33 -50.5t45.5 -38t61.5 -32t66.5 -25.5t75.5 -25t74 -24.5q142 43 142 182q0 31 -9.5 57.5t-21 46t-37.5 38.5t-43.5 30t-56 26t-57.5 21.5t-65.5 21t-62.5 19.5q-155 -43 -155 -184z" />
<glyph unicode="&#xa8;" horiz-adv-x="1228" d="M154 1171v187h184v-187h-184zM565 1171v187h185v-187h-185z" />
<glyph unicode="&#xa9;" horiz-adv-x="1521" d="M86 664q0 146 52 273.5t141.5 218t215 142.5t267.5 52q189 0 343.5 -88.5t242.5 -246t88 -351.5q0 -145 -53 -272.5t-143 -217t-214.5 -141t-263.5 -51.5q-187 0 -341.5 87.5t-244.5 244t-90 350.5zM207 662q0 -163 72.5 -294.5t199 -204.5t283.5 -73q237 0 395 162 t158 410q0 250 -157.5 413.5t-395.5 163.5q-158 0 -284.5 -74t-198.5 -206t-72 -297zM391 666q0 158 112.5 269.5t270.5 111.5q101 0 185 -45.5t137 -127.5l-107 -61q-35 54 -91.5 83.5t-123.5 29.5q-109 0 -183.5 -75.5t-74.5 -184.5t74.5 -184.5t183.5 -75.5 q68 0 125 30.5t94 85.5l107 -63q-54 -82 -139.5 -128t-186.5 -46q-158 0 -270.5 112t-112.5 269z" />
<glyph unicode="&#xaa;" horiz-adv-x="890" d="M80 1014q0 138 93.5 232.5t215.5 94.5q167 0 236 -131v119h133v-627h-135v113q-77 -125 -234 -125q-121 0 -215 93t-94 231zM213 1018q0 -83 55 -140t135 -57q83 0 139 57t56 140q0 80 -56 136t-139 56q-79 0 -134.5 -56t-55.5 -136z" />
<glyph unicode="&#xab;" horiz-adv-x="1005" d="M70 475l282 348h172l-278 -348l280 -346h-176zM444 475l285 348h172l-280 -348l280 -346h-174z" />
<glyph unicode="&#xac;" d="M152 549v156h946v-455h-168v299h-778z" />
<glyph unicode="&#xad;" horiz-adv-x="831" d="M121 479v152h590v-152h-590z" />
<glyph unicode="&#xae;" horiz-adv-x="1521" d="M86 664q0 146 52 273.5t141.5 218t215 142.5t267.5 52q189 0 343.5 -88.5t242.5 -246t88 -351.5q0 -145 -53 -272.5t-143 -217t-214.5 -141t-263.5 -51.5q-187 0 -341.5 87.5t-244.5 244t-90 350.5zM207 662q0 -163 72.5 -294.5t199 -204.5t283.5 -73q237 0 395 162 t158 410q0 250 -157.5 413.5t-395.5 163.5q-158 0 -284.5 -74t-198.5 -206t-72 -297zM537 297v756h239q129 0 209 -64t80 -168q0 -81 -47 -140.5t-127 -82.5l184 -301h-141l-168 289h-109v-289h-120zM657 686h123q77 0 121.5 34.5t44.5 94.5t-44.5 94.5t-121.5 34.5h-123 v-258z" />
<glyph unicode="&#xaf;" horiz-adv-x="1228" d="M123 1202v146h651v-146h-651z" />
<glyph unicode="&#xb0;" horiz-adv-x="743" d="M80 1051q0 123 82.5 205.5t210.5 82.5q127 0 210 -83t83 -205q0 -123 -83 -206t-210 -83q-128 0 -210.5 83t-82.5 206zM205 1051q0 -70 47 -117.5t121 -48.5q72 0 119 48t47 118t-47 118t-119 48q-74 0 -121 -48t-47 -118z" />
<glyph unicode="&#xb1;" d="M158 119v155h946v-155h-946zM158 733v154h395v334h156v-334h395v-154h-395v-334h-156v334h-395z" />
<glyph unicode="&#xb2;" horiz-adv-x="765" d="M115 580v102l264 248q59 55 82.5 93t23.5 83t-26.5 69.5t-75.5 24.5q-119 0 -119 -125h-145q0 133 71 199.5t195 66.5q117 0 182.5 -60.5t65.5 -160.5q0 -73 -34 -136t-110 -134l-143 -137h309v-133h-540z" />
<glyph unicode="&#xb3;" horiz-adv-x="712" d="M78 782l133 47q15 -66 51 -95t98 -29q54 0 85.5 30t31.5 78q0 53 -36 84t-97 31h-35l-57 82l174 186h-309v133h477v-133l-168 -190q98 -11 146.5 -68.5t48.5 -136.5q0 -95 -71 -164.5t-190 -69.5q-113 0 -186.5 56t-95.5 159z" />
<glyph unicode="&#xb4;" horiz-adv-x="1228" d="M123 1204l446 242l66 -139l-451 -230z" />
<glyph unicode="&#xb5;" horiz-adv-x="1169" d="M152 -254v1227h159v-524q0 -158 82.5 -240t212.5 -82q124 0 195 76t71 213v557h160v-590q0 -186 -106 -296t-281 -110q-121 0 -207 52t-127 145v-428h-159z" />
<glyph unicode="&#xb6;" horiz-adv-x="1263" d="M57 915q0 184 111.5 299t318.5 115h691v-137h-121v-1366h-139v1366h-228v-1366h-151v680h-52q-210 0 -320 113t-110 296z" />
<glyph unicode="&#xb7;" horiz-adv-x="440" d="M123 492v194h196v-194h-196z" />
<glyph unicode="&#xb8;" horiz-adv-x="1228" d="M113 -401l71 86q60 -60 140 -60q52 0 80 23t28 61q0 41 -31.5 63.5t-91.5 22.5h-100l61 205h119l-33 -104h19q86 0 140 -51t54 -136t-64 -139.5t-171 -54.5q-140 0 -221 84z" />
<glyph unicode="&#xb9;" horiz-adv-x="518" d="M51 1184v145h332v-749h-166v604h-166z" />
<glyph unicode="&#xba;" horiz-adv-x="819" d="M78 1016q0 135 93 230t239 95t239.5 -96t93.5 -231q0 -134 -93.5 -229t-239.5 -95t-239 95.5t-93 230.5zM217 1016q0 -81 54 -137t139 -56q86 0 139 55.5t53 137.5q0 80 -53 135t-139 55q-85 0 -139 -55t-54 -135z" />
<glyph unicode="&#xbb;" horiz-adv-x="1005" d="M102 129l281 346l-279 348h170l285 -348l-280 -346h-177zM479 129l281 346l-279 348h170l285 -348l-283 -346h-174z" />
<glyph unicode="&#xbc;" horiz-adv-x="1458" d="M59 1184v145h332v-749h-166v604h-166zM276 0l648 1329h143l-647 -1329h-144zM784 172v135l183 443h163l-180 -443h211v213h152v-213h88v-135h-88v-172h-152v172h-377z" />
<glyph unicode="&#xbd;" horiz-adv-x="1458" d="M57 1184v145h332v-749h-166v604h-166zM276 0l646 1329h143l-645 -1329h-144zM848 0v104l264 246q59 57 83 94t24 82q0 46 -27 70.5t-78 24.5q-56 0 -86.5 -31t-30.5 -94h-147q0 132 72 199t196 67q117 0 182.5 -59.5t65.5 -159.5q0 -74 -33.5 -137t-109.5 -134l-148 -139 h311v-133h-538z" />
<glyph unicode="&#xbe;" horiz-adv-x="1603" d="M63 782l132 47q17 -66 53 -95t96 -29q56 0 87.5 30t31.5 78q0 52 -36.5 83.5t-96.5 31.5h-37l-55 82l172 186h-308v133h478v-133l-170 -190q98 -11 146 -68.5t48 -136.5q0 -95 -70 -164.5t-190 -69.5q-111 0 -186 56.5t-95 158.5zM424 0l645 1329h143l-645 -1329h-143z M930 172v135l182 443h164l-180 -443h213v213h149v-213h90v-135h-90v-172h-149v172h-379z" />
<glyph unicode="&#xbf;" horiz-adv-x="927" d="M70 -25q0 67 24 126t59.5 99.5t77 81t77 72.5t59.5 72.5t24 81.5v72h160v-78q0 -63 -33 -121t-79.5 -102.5t-93 -88t-79.5 -95.5t-33 -107q0 -97 61 -154t173 -57q113 0 179.5 70.5t66.5 203.5h164q0 -204 -114 -316t-300 -112q-184 0 -288.5 98.5t-104.5 253.5zM379 788 v185h182v-185h-182z" />
<glyph unicode="&#xc0;" horiz-adv-x="1269" d="M29 0l501 1329h207l504 -1329h-170l-125 328h-616l-123 -328h-178zM377 1663l69 149l447 -241l-66 -137zM387 483h500l-250 668z" />
<glyph unicode="&#xc1;" horiz-adv-x="1269" d="M29 0l501 1329h207l504 -1329h-170l-125 328h-616l-123 -328h-178zM377 1571l444 241l72 -149l-451 -229zM387 483h500l-250 668z" />
<glyph unicode="&#xc2;" horiz-adv-x="1269" d="M29 0l501 1329h207l504 -1329h-170l-125 328h-616l-123 -328h-178zM274 1550l318 254h86l317 -254l-77 -114l-283 217l-283 -217zM387 483h500l-250 668z" />
<glyph unicode="&#xc3;" horiz-adv-x="1269" d="M29 0l501 1329h207l504 -1329h-170l-125 328h-616l-123 -328h-178zM264 1513q0 110 57.5 176t159.5 66q44 0 88.5 -15.5t74.5 -34.5t65.5 -34.5t64.5 -15.5q96 0 96 94h136q0 -109 -57.5 -175.5t-155.5 -66.5q-58 0 -113 25.5t-100.5 50.5t-79.5 25q-101 0 -101 -95h-135 zM387 483h500l-250 668z" />
<glyph unicode="&#xc4;" horiz-adv-x="1269" d="M29 0l501 1329h207l504 -1329h-170l-125 328h-616l-123 -328h-178zM319 1520v206h207v-206h-207zM387 483h500l-250 668zM741 1520v206h207v-206h-207z" />
<glyph unicode="&#xc5;" horiz-adv-x="1269" d="M29 0l501 1329h207l504 -1329h-170l-125 328h-616l-123 -328h-178zM387 483h500l-250 668zM399 1667q0 93 67 158t169 65q101 0 168 -65t67 -158q0 -95 -66.5 -160t-168.5 -65t-169 65t-67 160zM520 1665q0 -46 32 -78.5t83 -32.5t83 32.5t32 78.5q0 47 -32 80t-83 33 t-83 -33t-32 -80z" />
<glyph unicode="&#xc6;" horiz-adv-x="1757" d="M-25 0l826 1329h860v-158h-612v-415h555v-154h-555v-444h616v-158h-782v338h-510l-207 -338h-191zM467 494h416v682z" />
<glyph unicode="&#xc7;" horiz-adv-x="1374" d="M86 666q0 191 86 347t241 246.5t349 90.5q177 0 323.5 -80.5t237.5 -222.5l-141 -91q-69 111 -178 173.5t-242 62.5q-144 0 -260.5 -70.5t-181 -191t-64.5 -264.5t64.5 -264.5t181.5 -191.5t260 -71q133 0 242.5 62t177.5 172l141 -88q-87 -136 -225 -216t-307 -87 l-27 -86h18q87 0 141 -51t54 -136t-64.5 -139.5t-171.5 -54.5q-140 0 -221 84l74 86q57 -60 139 -60q52 0 79.5 23t27.5 61q0 41 -30.5 63.5t-90.5 22.5h-101l58 191q-262 31 -426 221t-164 459z" />
<glyph unicode="&#xc8;" horiz-adv-x="1044" d="M170 0v1329h780v-158h-614v-415h557v-154h-557v-444h618v-158h-784zM334 1663l72 149l446 -241l-68 -137z" />
<glyph unicode="&#xc9;" horiz-adv-x="1044" d="M170 0v1329h780v-158h-614v-415h557v-154h-557v-444h618v-158h-784zM334 1571l446 241l72 -149l-451 -229z" />
<glyph unicode="&#xca;" horiz-adv-x="1044" d="M170 0v1329h780v-158h-614v-415h557v-154h-557v-444h618v-158h-784zM231 1550l320 254h86l317 -254l-80 -114l-280 215l-283 -215z" />
<glyph unicode="&#xcb;" horiz-adv-x="1044" d="M170 0v1329h780v-158h-614v-415h557v-154h-557v-444h618v-158h-784zM276 1520v206h209v-206h-209zM700 1520v206h207v-206h-207z" />
<glyph unicode="&#xcc;" horiz-adv-x="507" d="M-4 1663l72 149l444 -241l-66 -137zM170 0v1329h168v-1329h-168z" />
<glyph unicode="&#xcd;" horiz-adv-x="507" d="M-4 1571l446 241l70 -149l-451 -229zM170 0v1329h168v-1329h-168z" />
<glyph unicode="&#xce;" horiz-adv-x="507" d="M-106 1550l317 254h88l317 -254l-79 -114l-281 215l-283 -215zM170 0v1329h168v-1329h-168z" />
<glyph unicode="&#xcf;" horiz-adv-x="507" d="M-61 1520v206h206v-206h-206zM170 0v1329h168v-1329h-168zM360 1520v206h209v-206h-209z" />
<glyph unicode="&#xd0;" horiz-adv-x="1402" d="M37 592v147h156v590h462q202 0 353.5 -88.5t229 -237.5t77.5 -337q0 -189 -79 -339.5t-230.5 -238.5t-350.5 -88h-462v592h-156zM358 158h297q216 0 353 136t137 372q0 234 -137 369.5t-353 135.5h-297v-432h359v-147h-359v-434z" />
<glyph unicode="&#xd1;" horiz-adv-x="1476" d="M170 0v1329h172l797 -1061v1061h168v-1329h-166l-803 1071v-1071h-168zM379 1513q0 110 57.5 176t157.5 66q56 0 111 -25t101 -50t81 -25q98 0 98 94h133q0 -109 -57.5 -175.5t-153.5 -66.5q-58 0 -113 25.5t-101 50.5t-81 25q-100 0 -100 -95h-133z" />
<glyph unicode="&#xd2;" horiz-adv-x="1521" d="M86 664q0 143 52 270t141.5 218.5t215 144.5t267.5 53q140 0 265 -52.5t214.5 -143t142 -218t52.5 -270.5q0 -145 -52.5 -272.5t-142.5 -217.5t-215 -142t-264 -52q-140 0 -264.5 52t-215 141.5t-143.5 216.5t-53 272zM256 662q0 -222 144.5 -372.5t361.5 -150.5 q142 0 258 69.5t181 189.5t65 266q0 223 -144.5 375.5t-359.5 152.5q-108 0 -202.5 -41.5t-161 -112.5t-104.5 -169t-38 -207zM502 1663l71 149l447 -241l-68 -137z" />
<glyph unicode="&#xd3;" horiz-adv-x="1521" d="M86 664q0 143 52 270t141.5 218.5t215 144.5t267.5 53q140 0 265 -52.5t214.5 -143t142 -218t52.5 -270.5q0 -145 -52.5 -272.5t-142.5 -217.5t-215 -142t-264 -52q-140 0 -264.5 52t-215 141.5t-143.5 216.5t-53 272zM256 662q0 -222 144.5 -372.5t361.5 -150.5 q142 0 258 69.5t181 189.5t65 266q0 223 -144.5 375.5t-359.5 152.5q-108 0 -202.5 -41.5t-161 -112.5t-104.5 -169t-38 -207zM502 1571l446 241l72 -149l-453 -229z" />
<glyph unicode="&#xd4;" horiz-adv-x="1521" d="M86 664q0 143 52 270t141.5 218.5t215 144.5t267.5 53q140 0 265 -52.5t214.5 -143t142 -218t52.5 -270.5q0 -145 -52.5 -272.5t-142.5 -217.5t-215 -142t-264 -52q-140 0 -264.5 52t-215 141.5t-143.5 216.5t-53 272zM256 662q0 -222 144.5 -372.5t361.5 -150.5 q142 0 258 69.5t181 189.5t65 266q0 223 -144.5 375.5t-359.5 152.5q-108 0 -202.5 -41.5t-161 -112.5t-104.5 -169t-38 -207zM399 1550l318 254h88l317 -254l-80 -114l-280 215l-283 -215z" />
<glyph unicode="&#xd5;" horiz-adv-x="1521" d="M86 664q0 143 52 270t141.5 218.5t215 144.5t267.5 53q140 0 265 -52.5t214.5 -143t142 -218t52.5 -270.5q0 -145 -52.5 -272.5t-142.5 -217.5t-215 -142t-264 -52q-140 0 -264.5 52t-215 141.5t-143.5 216.5t-53 272zM256 662q0 -222 144.5 -372.5t361.5 -150.5 q142 0 258 69.5t181 189.5t65 266q0 223 -144.5 375.5t-359.5 152.5q-108 0 -202.5 -41.5t-161 -112.5t-104.5 -169t-38 -207zM391 1513q0 110 57.5 176t157.5 66q56 0 111 -25t101 -50t81 -25q98 0 98 94h133q0 -109 -57 -175.5t-153 -66.5q-58 0 -113 25.5t-101 50.5 t-81 25q-99 0 -99 -95h-135z" />
<glyph unicode="&#xd6;" horiz-adv-x="1521" d="M86 664q0 143 52 270t141.5 218.5t215 144.5t267.5 53q140 0 265 -52.5t214.5 -143t142 -218t52.5 -270.5q0 -145 -52.5 -272.5t-142.5 -217.5t-215 -142t-264 -52q-140 0 -264.5 52t-215 141.5t-143.5 216.5t-53 272zM256 662q0 -222 144.5 -372.5t361.5 -150.5 q142 0 258 69.5t181 189.5t65 266q0 223 -144.5 375.5t-359.5 152.5q-108 0 -202.5 -41.5t-161 -112.5t-104.5 -169t-38 -207zM444 1520v206h209v-206h-209zM868 1520v206h207v-206h-207z" />
<glyph unicode="&#xd7;" d="M217 319l305 306l-305 305l107 110l307 -307l305 307l108 -110l-305 -305l305 -306l-108 -108l-305 305l-307 -305z" />
<glyph unicode="&#xd8;" horiz-adv-x="1550" d="M74 78l166 164q-140 183 -140 422q0 143 52 270t142 218.5t215.5 144.5t266.5 53q242 0 424 -146l156 154l112 -115l-155 -156q139 -182 139 -421q0 -193 -89.5 -350t-244.5 -245.5t-342 -88.5q-243 0 -424 145l-164 -164zM270 662q0 -164 88 -302l727 727 q-134 105 -309 105q-107 0 -201.5 -41.5t-161 -112.5t-105 -169t-38.5 -207zM467 242q137 -103 309 -103q142 0 258.5 69.5t182 189.5t65.5 266q0 167 -88 305z" />
<glyph unicode="&#xd9;" horiz-adv-x="1417" d="M156 549v780h168v-774q0 -212 102 -314t283 -102q180 0 283.5 102.5t103.5 313.5v774h168v-780q0 -277 -149.5 -422t-405.5 -145t-404.5 145t-148.5 422zM451 1663l71 149l445 -241l-66 -137z" />
<glyph unicode="&#xda;" horiz-adv-x="1417" d="M156 549v780h168v-774q0 -212 102 -314t283 -102q180 0 283.5 102.5t103.5 313.5v774h168v-780q0 -277 -149.5 -422t-405.5 -145t-404.5 145t-148.5 422zM451 1571l444 241l72 -149l-451 -229z" />
<glyph unicode="&#xdb;" horiz-adv-x="1417" d="M156 549v780h168v-774q0 -212 102 -314t283 -102q180 0 283.5 102.5t103.5 313.5v774h168v-780q0 -277 -149.5 -422t-405.5 -145t-404.5 145t-148.5 422zM348 1550l318 254h86l317 -254l-78 -114l-280 215l-283 -215z" />
<glyph unicode="&#xdc;" horiz-adv-x="1417" d="M156 549v780h168v-774q0 -212 102 -314t283 -102q180 0 283.5 102.5t103.5 313.5v774h168v-780q0 -277 -149.5 -422t-405.5 -145t-404.5 145t-148.5 422zM393 1520v206h207v-206h-207zM815 1520v206h207v-206h-207z" />
<glyph unicode="&#xdd;" horiz-adv-x="1271" d="M33 1329h194l410 -633l410 633h190l-516 -784v-545h-170v547zM375 1571l446 241l72 -149l-451 -229z" />
<glyph unicode="&#xde;" horiz-adv-x="1128" d="M170 0v1329h166v-233h252q206 0 335.5 -123t129.5 -305q0 -184 -127.5 -306t-337.5 -122h-252v-240h-166zM336 397h252q138 0 218.5 75.5t80.5 195.5q0 118 -81 194t-218 76h-252v-541z" />
<glyph unicode="&#xdf;" horiz-adv-x="1128" d="M152 0v950q0 208 109.5 330.5t316.5 122.5q184 0 294.5 -101.5t110.5 -263.5q0 -117 -56.5 -197.5t-150.5 -117.5q127 -36 200 -124.5t73 -217.5q0 -184 -132 -282.5t-358 -98.5h-92v152h88q165 0 250.5 64t85.5 183q0 111 -83 177.5t-233 66.5h-108v145h88q130 0 200 62 t70 176q0 101 -65.5 164t-181.5 63q-131 0 -199 -78.5t-68 -224.5v-950h-159z" />
<glyph unicode="&#xe0;" horiz-adv-x="1239" d="M78 483q0 107 41 203t108 162t154.5 104.5t179.5 38.5q130 0 223 -54t144 -153v189h162v-973h-164v178q-117 -196 -365 -196q-91 0 -178.5 37.5t-155 102t-108.5 159.5t-41 202zM236 483q0 -146 101.5 -248t246.5 -102q148 0 250 101t102 249q0 151 -102 254t-250 103 q-145 0 -246.5 -103.5t-101.5 -253.5zM346 1307l66 137l446 -242l-61 -127z" />
<glyph unicode="&#xe1;" horiz-adv-x="1239" d="M78 483q0 107 41 203t108 162t154.5 104.5t179.5 38.5q130 0 223 -54t144 -153v189h162v-973h-164v178q-117 -196 -365 -196q-91 0 -178.5 37.5t-155 102t-108.5 159.5t-41 202zM236 483q0 -146 101.5 -248t246.5 -102q148 0 250 101t102 249q0 151 -102 254t-250 103 q-145 0 -246.5 -103.5t-101.5 -253.5zM346 1204l445 242l67 -139l-450 -230z" />
<glyph unicode="&#xe2;" horiz-adv-x="1239" d="M78 483q0 107 41 203t108 162t154.5 104.5t179.5 38.5q130 0 223 -54t144 -153v189h162v-973h-164v178q-117 -196 -365 -196q-91 0 -178.5 37.5t-155 102t-108.5 159.5t-41 202zM236 483q0 -146 101.5 -248t246.5 -102q148 0 250 101t102 249q0 151 -102 254t-250 103 q-145 0 -246.5 -103.5t-101.5 -253.5zM242 1192l317 254h86l318 -254l-78 -115l-283 215l-283 -215z" />
<glyph unicode="&#xe3;" horiz-adv-x="1239" d="M78 483q0 107 41 203t108 162t154.5 104.5t179.5 38.5q130 0 223 -54t144 -153v189h162v-973h-164v178q-117 -196 -365 -196q-91 0 -178.5 37.5t-155 102t-108.5 159.5t-41 202zM233 1155q0 111 57 176.5t159 65.5q56 0 110.5 -26.5t100.5 -52.5t81 -26q103 0 103 99h129 q0 -109 -57.5 -174.5t-155.5 -65.5q-46 0 -90.5 16.5t-74.5 35.5t-65 35.5t-63 16.5q-107 0 -107 -100h-127zM236 483q0 -146 101.5 -248t246.5 -102q148 0 250 101t102 249q0 151 -102 254t-250 103q-145 0 -246.5 -103.5t-101.5 -253.5z" />
<glyph unicode="&#xe4;" horiz-adv-x="1239" d="M78 483q0 107 41 203t108 162t154.5 104.5t179.5 38.5q130 0 223 -54t144 -153v189h162v-973h-164v178q-117 -196 -365 -196q-91 0 -178.5 37.5t-155 102t-108.5 159.5t-41 202zM236 483q0 -146 101.5 -248t246.5 -102q148 0 250 101t102 249q0 151 -102 254t-250 103 q-145 0 -246.5 -103.5t-101.5 -253.5zM303 1171v187h186v-187h-186zM715 1171v187h186v-187h-186z" />
<glyph unicode="&#xe5;" horiz-adv-x="1239" d="M78 483q0 107 41 203t108 162t154.5 104.5t179.5 38.5q130 0 223 -54t144 -153v189h162v-973h-164v178q-117 -196 -365 -196q-91 0 -178.5 37.5t-155 102t-108.5 159.5t-41 202zM236 483q0 -146 101.5 -248t246.5 -102q148 0 250 101t102 249q0 151 -102 254t-250 103 q-145 0 -246.5 -103.5t-101.5 -253.5zM375 1288q0 91 64.5 154t162.5 63t162.5 -63t64.5 -154q0 -93 -64 -156t-163 -63t-163 63t-64 156zM487 1286q0 -46 32 -78t83 -32t83 32t32 78q0 47 -32 80t-83 33t-83 -33t-32 -80z" />
<glyph unicode="&#xe6;" horiz-adv-x="1990" d="M78 483q0 107 41 203t108 162t154.5 104.5t179.5 38.5q130 0 223 -54t144 -153v189h162v-135q137 153 346 153q138 0 250 -68t173.5 -181t61.5 -246q0 -12 -4 -58h-825q15 -137 112.5 -224t241.5 -87q93 0 172 35.5t129 103.5l111 -86q-66 -94 -172.5 -146t-233.5 -52 q-107 0 -201 41t-161 114v-137h-164v178q-117 -196 -365 -196q-91 0 -178.5 37.5t-155 102t-108.5 159.5t-41 202zM236 483q0 -146 101.5 -248t246.5 -102q148 0 250 101t102 249q0 151 -102 254t-250 103q-145 0 -246.5 -103.5t-101.5 -253.5zM1098 557h661 q-12 126 -105 207.5t-222 81.5q-126 0 -220 -81t-114 -208z" />
<glyph unicode="&#xe7;" horiz-adv-x="1069" d="M78 487q0 211 148.5 358.5t361.5 147.5q132 0 244.5 -60t183.5 -167l-133 -80q-51 74 -127 114t-168 40q-149 0 -250.5 -102.5t-101.5 -250.5q0 -149 101.5 -251.5t250.5 -102.5q93 0 171.5 41.5t129.5 116.5l131 -80q-62 -94 -157.5 -153t-209.5 -72l-28 -90h18 q86 0 140.5 -51t54.5 -136t-64.5 -139.5t-171.5 -54.5q-139 0 -223 84l74 86q60 -60 139 -60q52 0 79 23t27 61q0 86 -120 86h-101l58 189q-195 20 -326 163.5t-131 339.5z" />
<glyph unicode="&#xe8;" horiz-adv-x="1132" d="M78 485q0 137 63 252.5t178 184.5t256 69q135 0 247.5 -67.5t176.5 -181t64 -246.5q0 -35 -4 -58h-823q14 -137 110.5 -224t241.5 -87q94 0 173 35.5t128 103.5l110 -86q-66 -93 -174.5 -145.5t-234.5 -52.5q-216 0 -364 145t-148 358zM244 580h655q-19 118 -110.5 192 t-215.5 74q-121 0 -212 -73.5t-117 -192.5zM313 1307l68 137l444 -242l-61 -127z" />
<glyph unicode="&#xe9;" horiz-adv-x="1132" d="M78 485q0 137 63 252.5t178 184.5t256 69q135 0 247.5 -67.5t176.5 -181t64 -246.5q0 -35 -4 -58h-823q14 -137 110.5 -224t241.5 -87q94 0 173 35.5t128 103.5l110 -86q-66 -93 -174.5 -145.5t-234.5 -52.5q-216 0 -364 145t-148 358zM244 580h655q-19 118 -110.5 192 t-215.5 74q-121 0 -212 -73.5t-117 -192.5zM313 1204l447 242l65 -139l-450 -230z" />
<glyph unicode="&#xea;" horiz-adv-x="1132" d="M78 485q0 137 63 252.5t178 184.5t256 69q135 0 247.5 -67.5t176.5 -181t64 -246.5q0 -35 -4 -58h-823q14 -137 110.5 -224t241.5 -87q94 0 173 35.5t128 103.5l110 -86q-66 -93 -174.5 -145.5t-234.5 -52.5q-216 0 -364 145t-148 358zM209 1192l317 254h88l318 -254 l-80 -115l-281 215l-282 -215zM244 580h655q-19 118 -110.5 192t-215.5 74q-121 0 -212 -73.5t-117 -192.5z" />
<glyph unicode="&#xeb;" horiz-adv-x="1132" d="M78 485q0 137 63 252.5t178 184.5t256 69q135 0 247.5 -67.5t176.5 -181t64 -246.5q0 -35 -4 -58h-823q14 -137 110.5 -224t241.5 -87q94 0 173 35.5t128 103.5l110 -86q-66 -93 -174.5 -145.5t-234.5 -52.5q-216 0 -364 145t-148 358zM244 580h655q-19 118 -110.5 192 t-215.5 74q-121 0 -212 -73.5t-117 -192.5zM270 1171v187h187v-187h-187zM682 1171v187h186v-187h-186z" />
<glyph unicode="&#xec;" horiz-adv-x="464" d="M-25 1307l68 137l446 -242l-61 -127zM152 0v973h163v-973h-163z" />
<glyph unicode="&#xed;" horiz-adv-x="464" d="M-25 1204l447 242l67 -139l-450 -230zM152 0v973h163v-973h-163z" />
<glyph unicode="&#xee;" horiz-adv-x="464" d="M-127 1192l317 254h86l318 -254l-78 -115l-283 215l-282 -215zM152 0v973h163v-973h-163z" />
<glyph unicode="&#xef;" horiz-adv-x="464" d="M-66 1171v187h187v-187h-187zM152 0v973h163v-973h-163zM346 1171v187h186v-187h-186z" />
<glyph unicode="&#xf0;" horiz-adv-x="1187" d="M78 471q0 100 40 191t107 157.5t160.5 106t196.5 39.5q198 0 309 -158q-26 118 -90.5 212t-157.5 155l-94 -140l-117 66l90 133q-93 37 -198 37v133q155 0 280 -49l90 131l115 -66l-84 -125q174 -108 268 -309t94 -457q0 -130 -39.5 -235t-108.5 -172t-160.5 -103 t-196.5 -36q-136 0 -252 66t-184 178.5t-68 244.5zM236 471q0 -138 101.5 -241t244.5 -103q144 0 246 103t102 241q0 139 -101 243.5t-247 104.5q-145 0 -245.5 -104.5t-100.5 -243.5z" />
<glyph unicode="&#xf1;" horiz-adv-x="1173" d="M152 0v973h159v-174q44 94 131 143t203 49q173 0 281 -103.5t108 -287.5v-600h-164v541q0 141 -70.5 220t-193.5 79t-207 -80t-84 -232v-528h-163zM221 1155q0 111 57.5 176.5t157.5 65.5q56 0 111 -26.5t101 -52.5t81 -26q102 0 102 99h130q0 -109 -57.5 -174.5 t-153.5 -65.5q-45 0 -90.5 16.5t-75 35.5t-65 35.5t-64.5 16.5q-105 0 -105 -100h-129z" />
<glyph unicode="&#xf2;" horiz-adv-x="1175" d="M78 485q0 136 67.5 252.5t185 185t257.5 68.5t258 -68.5t186 -185t68 -252.5t-68.5 -252t-186.5 -183.5t-257 -67.5q-138 0 -255.5 67.5t-186 183.5t-68.5 252zM236 485q0 -141 103 -246.5t249 -105.5q147 0 250.5 105t103.5 247q0 141 -103 248t-251 107t-250 -107 t-102 -248zM332 1307l67 137l445 -242l-62 -127z" />
<glyph unicode="&#xf3;" horiz-adv-x="1175" d="M78 485q0 136 67.5 252.5t185 185t257.5 68.5t258 -68.5t186 -185t68 -252.5t-68.5 -252t-186.5 -183.5t-257 -67.5q-138 0 -255.5 67.5t-186 183.5t-68.5 252zM236 485q0 -141 103 -246.5t249 -105.5q147 0 250.5 105t103.5 247q0 141 -103 248t-251 107t-250 -107 t-102 -248zM332 1204l446 242l66 -139l-451 -230z" />
<glyph unicode="&#xf4;" horiz-adv-x="1175" d="M78 485q0 136 67.5 252.5t185 185t257.5 68.5t258 -68.5t186 -185t68 -252.5t-68.5 -252t-186.5 -183.5t-257 -67.5q-138 0 -255.5 67.5t-186 183.5t-68.5 252zM227 1192l318 254h88l317 -254l-80 -115l-280 215l-283 -215zM236 485q0 -141 103 -246.5t249 -105.5 q147 0 250.5 105t103.5 247q0 141 -103 248t-251 107t-250 -107t-102 -248z" />
<glyph unicode="&#xf5;" horiz-adv-x="1175" d="M78 485q0 136 67.5 252.5t185 185t257.5 68.5t258 -68.5t186 -185t68 -252.5t-68.5 -252t-186.5 -183.5t-257 -67.5q-138 0 -255.5 67.5t-186 183.5t-68.5 252zM219 1155q0 111 57.5 176.5t157.5 65.5q56 0 111 -26.5t101 -52.5t81 -26q102 0 102 99h129 q0 -109 -57 -174.5t-153 -65.5q-45 0 -90.5 16.5t-75 35.5t-65 35.5t-64.5 16.5q-105 0 -105 -100h-129zM236 485q0 -141 103 -246.5t249 -105.5q147 0 250.5 105t103.5 247q0 141 -103 248t-251 107t-250 -107t-102 -248z" />
<glyph unicode="&#xf6;" horiz-adv-x="1175" d="M78 485q0 136 67.5 252.5t185 185t257.5 68.5t258 -68.5t186 -185t68 -252.5t-68.5 -252t-186.5 -183.5t-257 -67.5q-138 0 -255.5 67.5t-186 183.5t-68.5 252zM236 485q0 -141 103 -246.5t249 -105.5q147 0 250.5 105t103.5 247q0 141 -103 248t-251 107t-250 -107 t-102 -248zM289 1171v187h186v-187h-186zM700 1171v187h187v-187h-187z" />
<glyph unicode="&#xf7;" d="M158 549v156h946v-156h-946zM516 274q0 46 32.5 77.5t78.5 31.5t78 -31.5t32 -77.5q0 -49 -32 -80.5t-78 -31.5q-47 0 -79 31.5t-32 80.5zM516 981q0 47 32.5 79t78.5 32t78 -32t32 -79t-32 -79t-78 -32t-78.5 32t-32.5 79z" />
<glyph unicode="&#xf8;" horiz-adv-x="1208" d="M70 51l129 129q-107 132 -107 305q0 136 68 252.5t186 185t258 68.5q172 0 305 -100l131 131l101 -100l-131 -131q104 -132 104 -306q0 -136 -68.5 -252t-186 -183.5t-255.5 -67.5q-167 0 -305 98l-129 -129zM250 485q0 -103 59 -194l490 489q-89 60 -195 60 q-148 0 -251 -107t-103 -248zM410 190q93 -57 194 -57q146 0 249 105.5t103 246.5q0 110 -59 193z" />
<glyph unicode="&#xf9;" horiz-adv-x="1169" d="M137 383v590h160v-557q0 -137 71 -213t195 -76q131 0 214 82t83 240v524h158v-973h-158v174q-42 -93 -128.5 -145t-207.5 -52q-175 0 -281 110t-106 296zM336 1307l67 137l447 -242l-64 -127z" />
<glyph unicode="&#xfa;" horiz-adv-x="1169" d="M137 383v590h160v-557q0 -137 71 -213t195 -76q131 0 214 82t83 240v524h158v-973h-158v174q-42 -93 -128.5 -145t-207.5 -52q-175 0 -281 110t-106 296zM336 1204l446 242l68 -139l-453 -230z" />
<glyph unicode="&#xfb;" horiz-adv-x="1169" d="M137 383v590h160v-557q0 -137 71 -213t195 -76q131 0 214 82t83 240v524h158v-973h-158v174q-42 -93 -128.5 -145t-207.5 -52q-175 0 -281 110t-106 296zM233 1192l318 254h86l317 -254l-80 -115l-280 215l-283 -215z" />
<glyph unicode="&#xfc;" horiz-adv-x="1169" d="M137 383v590h160v-557q0 -137 71 -213t195 -76q131 0 214 82t83 240v524h158v-973h-158v174q-42 -93 -128.5 -145t-207.5 -52q-175 0 -281 110t-106 296zM295 1171v187h184v-187h-184zM707 1171v187h184v-187h-184z" />
<glyph unicode="&#xfd;" horiz-adv-x="1062" d="M23 973h182l336 -780l313 780h184l-616 -1424h-166l201 449zM274 1204l445 242l67 -139l-450 -230z" />
<glyph unicode="&#xfe;" horiz-adv-x="1245" d="M152 -451v1833h159v-589q51 96 150 147t209 51q137 0 251.5 -68.5t180 -185.5t65.5 -256q0 -101 -39.5 -193.5t-106 -159.5t-159 -106.5t-194.5 -39.5q-235 0 -357 186v-619h-159zM311 481q0 -150 101 -249t250 -99q145 0 246.5 103t101.5 245q0 148 -101 253.5 t-247 105.5q-149 0 -250 -102.5t-101 -256.5z" />
<glyph unicode="&#xff;" horiz-adv-x="1062" d="M23 973h182l336 -780l313 780h184l-616 -1424h-166l201 449zM231 1171v187h187v-187h-187zM643 1171v187h186v-187h-186z" />
<glyph unicode="&#x152;" horiz-adv-x="2144" d="M86 664q0 143 52 270t141.5 218.5t215 144.5t267.5 53q151 0 282.5 -60t225.5 -168v207h778v-158h-612v-415h557v-154h-557v-444h616v-158h-782v209q-94 -107 -225.5 -167t-282.5 -60q-140 0 -264.5 52t-215 141.5t-143.5 216.5t-53 272zM256 662q0 -222 144.5 -372.5 t361.5 -150.5q142 0 258 69.5t181 189.5t65 266q0 223 -144.5 375.5t-359.5 152.5q-108 0 -202.5 -41.5t-161 -112.5t-104.5 -169t-38 -207z" />
<glyph unicode="&#x153;" horiz-adv-x="1996" d="M78 485q0 136 67.5 252.5t185 185t257.5 68.5q134 0 247.5 -63t182.5 -170q66 107 176.5 170t245.5 63t247.5 -67.5t176 -181t63.5 -246.5q0 -35 -4 -58h-823q14 -137 110.5 -224t241.5 -87q94 0 173 35.5t128 103.5l111 -86q-66 -93 -174.5 -145.5t-235.5 -52.5 q-137 0 -252 63t-182 170q-70 -106 -185 -169.5t-247 -63.5q-138 0 -255.5 67.5t-186 183.5t-68.5 252zM236 485q0 -141 103 -246.5t249 -105.5q147 0 250.5 105t103.5 247q0 141 -103 248t-251 107t-250 -107t-102 -248zM1108 580h655q-19 118 -110 192t-215 74 q-121 0 -212.5 -73.5t-117.5 -192.5z" />
<glyph unicode="&#x178;" horiz-adv-x="1271" d="M33 1329h194l410 -633l410 633h190l-516 -784v-545h-170v547zM317 1520v206h209v-206h-209zM741 1520v206h207v-206h-207z" />
<glyph unicode="&#x2c6;" horiz-adv-x="1228" d="M123 1192l317 254h86l318 -254l-78 -115l-281 215l-282 -215z" />
<glyph unicode="&#x2dc;" horiz-adv-x="1228" d="M123 1155q0 111 57.5 176.5t157.5 65.5q56 0 111 -26.5t101 -52.5t81 -26q102 0 102 99h129q0 -109 -57.5 -174.5t-153.5 -65.5q-45 0 -90.5 16.5t-75 35.5t-65 35.5t-64.5 16.5q-104 0 -104 -100h-129z" />
<glyph unicode="&#x2000;" horiz-adv-x="945" />
<glyph unicode="&#x2001;" horiz-adv-x="1890" />
<glyph unicode="&#x2002;" horiz-adv-x="945" />
<glyph unicode="&#x2003;" horiz-adv-x="1890" />
<glyph unicode="&#x2004;" horiz-adv-x="630" />
<glyph unicode="&#x2005;" horiz-adv-x="472" />
<glyph unicode="&#x2006;" horiz-adv-x="315" />
<glyph unicode="&#x2007;" horiz-adv-x="315" />
<glyph unicode="&#x2008;" horiz-adv-x="236" />
<glyph unicode="&#x2009;" horiz-adv-x="378" />
<glyph unicode="&#x200a;" horiz-adv-x="105" />
<glyph unicode="&#x2010;" horiz-adv-x="831" d="M121 479v152h590v-152h-590z" />
<glyph unicode="&#x2011;" horiz-adv-x="831" d="M121 479v152h590v-152h-590z" />
<glyph unicode="&#x2012;" horiz-adv-x="831" d="M121 479v152h590v-152h-590z" />
<glyph unicode="&#x2013;" horiz-adv-x="1142" d="M121 479v152h901v-152h-901z" />
<glyph unicode="&#x2014;" horiz-adv-x="1576" d="M121 479v152h1335v-152h-1335z" />
<glyph unicode="&#x2018;" horiz-adv-x="401" d="M86 1012l117 350h116l-63 -350h-170z" />
<glyph unicode="&#x2019;" horiz-adv-x="389" d="M98 999l64 351h170l-117 -351h-117z" />
<glyph unicode="&#x201a;" horiz-adv-x="407" d="M72 -162l63 350h172l-117 -350h-118z" />
<glyph unicode="&#x201c;" horiz-adv-x="692" d="M88 999l117 351h117l-64 -351h-170zM379 999l115 351h118l-63 -351h-170z" />
<glyph unicode="&#x201d;" horiz-adv-x="679" d="M98 999l64 351h170l-117 -351h-117zM387 999l64 351h170l-115 -351h-119z" />
<glyph unicode="&#x201e;" horiz-adv-x="696" d="M72 -162l63 350h172l-117 -350h-118zM362 -162l64 350h170l-117 -350h-117z" />
<glyph unicode="&#x2022;" horiz-adv-x="747" d="M168 432v410h412v-410h-412z" />
<glyph unicode="&#x2026;" horiz-adv-x="1243" d="M121 0v195h196v-195h-196zM524 0v195h195v-195h-195zM926 0v195h196v-195h-196z" />
<glyph unicode="&#x202f;" horiz-adv-x="378" />
<glyph unicode="&#x2039;" horiz-adv-x="628" d="M70 475l282 348h172l-278 -348l280 -346h-176z" />
<glyph unicode="&#x203a;" horiz-adv-x="628" d="M102 129l281 346l-279 348h170l285 -348l-280 -346h-177z" />
<glyph unicode="&#x205f;" horiz-adv-x="472" />
<glyph unicode="&#x20ac;" horiz-adv-x="1263" d="M55 459l43 125h152q-4 54 -4 82q0 48 2 73h-160l41 127h137q50 225 203.5 354.5t382.5 129.5q102 0 183 -21t159 -69l-72 -140q-121 72 -270 72q-159 0 -265.5 -86.5t-148.5 -239.5h570l-43 -127h-549q-2 -25 -2 -73q0 -28 4 -82h512l-41 -125h-449q42 -151 148 -236.5 t264 -85.5q149 0 270 72l72 -139q-78 -48 -159 -69t-183 -21q-226 0 -380 128.5t-204 350.5h-213z" />
<glyph unicode="&#x2122;" horiz-adv-x="1521" d="M59 1214v115h553v-115h-211v-505h-129v505h-213zM715 709v620h178l154 -481l153 481h176l2 -620h-121v450h-6l-143 -450h-123l-143 450h-8v-450h-119z" />
<glyph unicode="&#x25fc;" horiz-adv-x="972" d="M0 0v973h973v-973h-973z" />
</font>
</defs>
</svg>
