<?xml version="1.0" standalone="no"?>
<!DOCTYPE svg PUBLIC "-//W3C//DTD SVG 1.1//EN" "http://www.w3.org/Graphics/SVG/1.1/DTD/svg11.dtd" >
<svg xmlns="http://www.w3.org/2000/svg" xmlns:xlink="http://www.w3.org/1999/xlink" version="1.1">
<metadata></metadata>
<defs>
<font id="f37_moondemi_it" horiz-adv-x="1175" >
<font-face units-per-em="2048" ascent="1638" descent="-410" />
<missing-glyph horiz-adv-x="454" />
<glyph unicode="&#xfb01;" horiz-adv-x="1183" d="M205 762l39 211h145l6 35q67 395 477 395q32 0 52 -2l-37 -211q-20 2 -45 2q-98 0 -156 -42t-74 -142l-6 -35h606l-172 -973h-217l135 762h-389l-135 -762h-217l135 762h-147zM1024 1153l39 227h225l-41 -227h-223z" />
<glyph unicode="&#xfb02;" horiz-adv-x="1181" d="M205 762l39 211h145l6 35q67 395 477 395q32 0 52 -2l-37 -211q-20 2 -45 2q-98 0 -156 -42t-74 -142l-6 -35h387l72 409h217l-244 -1382h-217l135 762h-387l-135 -762h-217l135 762h-147z" />
<glyph horiz-adv-x="0" />
<glyph horiz-adv-x="682" />
<glyph unicode=" "  horiz-adv-x="454" />
<glyph unicode="&#x09;" horiz-adv-x="454" />
<glyph unicode="&#xa0;" horiz-adv-x="454" />
<glyph unicode="!" horiz-adv-x="520" d="M147 0l41 227h226l-41 -227h-226zM270 424l41 487l72 418h221l-72 -418l-133 -487h-129z" />
<glyph unicode="&#x22;" horiz-adv-x="727" d="M295 956l39 394h215l-100 -394h-154zM616 956l39 394h217l-102 -394h-154z" />
<glyph unicode="#" horiz-adv-x="1130" d="M145 379l33 184h195l86 217h-162l33 185h200l95 243h168l-95 -243h207l94 243h168l-94 -243h150l-33 -185h-189l-86 -217h156l-33 -184h-194l-94 -244h-168l94 244h-207l-94 -244h-168l94 244h-156zM541 563h207l86 217h-207z" />
<glyph unicode="$" horiz-adv-x="1107" d="M100 211l176 131q75 -120 228 -154l76 426q-54 18 -92 34.5t-82 45t-71 62.5t-45 86t-18 116q0 160 121 266.5t316 123.5l39 215h184l-39 -224q107 -19 192.5 -71t135.5 -133l-168 -136q-67 106 -195 142l-67 -379q53 -21 93 -40.5t84.5 -51.5t72.5 -67.5t46.5 -87.5 t18.5 -114q0 -191 -126 -298.5t-327 -118.5l-39 -215h-184l39 221q-264 36 -369 221zM489 969q0 -46 33 -78.5t96 -61.5l56 316q-86 -18 -135.5 -63.5t-49.5 -112.5zM688 184q96 15 148.5 67t52.5 132q0 62 -35 101.5t-100 68.5z" />
<glyph unicode="%" horiz-adv-x="1738" d="M225 901q0 189 116 313.5t290 124.5q132 0 214.5 -87.5t82.5 -223.5q0 -175 -114 -300.5t-294 -125.5q-131 0 -213 84.5t-82 214.5zM391 924q0 -75 41.5 -121.5t110.5 -46.5q86 0 150.5 78t64.5 184q0 76 -40.5 122t-109.5 46q-88 0 -152.5 -78t-64.5 -184zM459 0 l868 1329h186l-868 -1329h-186zM1047 293q0 187 116 312.5t289 125.5q132 0 214.5 -87.5t82.5 -223.5q0 -113 -49.5 -209.5t-143.5 -156.5t-213 -60q-132 0 -214 83.5t-82 215.5zM1212 313q0 -74 42 -120.5t110 -45.5q87 -1 151 77t64 186q0 75 -40 120t-109 45 q-88 0 -153 -77.5t-65 -184.5z" />
<glyph unicode="&#x26;" horiz-adv-x="1257" d="M147 326q0 136 76.5 233t214.5 137q-145 84 -145 248q0 184 139 295t371 111q91 0 174 -9l-39 -206q-78 10 -145 10q-126 0 -200.5 -56t-74.5 -151q0 -67 42 -105t132 -38h250l31 174h211l-31 -174h168l-37 -207h-168l-67 -383h165l-34 -205h-627q-186 0 -296 88.5 t-110 237.5zM381 365q0 -77 52.5 -118.5t154.5 -41.5h252l67 383h-254q-125 0 -198.5 -62t-73.5 -161z" />
<glyph unicode="'" horiz-adv-x="403" d="M295 956l39 394h215l-100 -394h-154z" />
<glyph unicode="(" horiz-adv-x="679" d="M160 377q0 306 155 565t455 414l94 -168q-477 -308 -477 -799q0 -174 61 -305.5t179 -237.5l-152 -163q-315 304 -315 694z" />
<glyph unicode=")" horiz-adv-x="679" d="M-2 -150q479 311 479 799q0 174 -61 305t-178 240l149 162q315 -301 315 -694q0 -201 -65 -381.5t-204 -336.5t-341 -261z" />
<glyph unicode="*" horiz-adv-x="739" d="M248 958l196 78l-165 82l100 131l133 -112l14 190h156l-57 -197l174 115l61 -133l-186 -80l155 -74l-96 -129l-141 115l-14 -196h-156l51 178l-164 -103z" />
<glyph unicode="+" horiz-adv-x="1261" d="M231 526l37 201h391l68 391h203l-68 -391h389l-34 -201h-392l-67 -391h-203l68 391h-392z" />
<glyph unicode="," horiz-adv-x="444" d="M51 -176l117 409h219l-178 -409h-158z" />
<glyph unicode="-" horiz-adv-x="841" d="M201 469l35 199h606l-35 -199h-606z" />
<glyph unicode="." horiz-adv-x="481" d="M117 0l43 242h246l-41 -242h-248z" />
<glyph unicode="/" horiz-adv-x="759" d="M51 0l668 1329h221l-668 -1329h-221z" />
<glyph unicode="0" horiz-adv-x="1191" d="M199 475l67 389q36 219 181.5 352.5t369.5 133.5q216 0 332.5 -140t79.5 -346l-70 -397q-40 -237 -181 -361t-370 -124q-145 0 -247.5 65.5t-144.5 178t-17 249.5zM422 485q-23 -133 33 -206.5t178 -73.5t203 73t104 207l64 361q24 133 -34.5 206.5t-176.5 73.5 q-124 0 -204 -71t-104 -209z" />
<glyph unicode="1" horiz-adv-x="671" d="M264 1108l39 221h436l-235 -1329h-236l195 1108h-199z" />
<glyph unicode="2" horiz-adv-x="1075" d="M88 0l31 164l592 545q43 40 57 53t47 48.5t45.5 57.5t24.5 56.5t12 68.5q0 66 -45 105t-129 39q-203 0 -248 -234h-221q36 213 158 330t331 117q176 0 277.5 -91.5t101.5 -234.5q0 -42 -10 -84t-22 -74t-40 -72.5t-46 -63.5t-58 -64t-57.5 -57.5t-63.5 -59.5l-356 -326 h557l-39 -223h-899z" />
<glyph unicode="3" horiz-adv-x="1052" d="M102 268l201 107q39 -189 252 -189q120 0 190 62.5t70 165.5q0 85 -57 133.5t-160 48.5h-66l-73 145l375 383h-512l36 205h795l-31 -176l-381 -383q139 -23 216 -114t77 -228q0 -209 -137 -327.5t-362 -118.5q-163 0 -282.5 73.5t-150.5 212.5z" />
<glyph unicode="4" horiz-adv-x="1177" d="M98 270l27 146l577 913h240l-532 -846h385l59 346h227l-59 -346h188l-36 -213h-191l-47 -270h-227l47 270h-658z" />
<glyph unicode="5" horiz-adv-x="1058" d="M115 274l204 109q31 -190 254 -190q113 0 184.5 66.5t71.5 174.5q0 86 -56.5 135t-158.5 49h-364l168 711h725l-37 -211h-516l-70 -289h148q172 0 279.5 -99t107.5 -269q0 -211 -138 -345t-362 -134q-176 0 -291.5 73.5t-148.5 218.5z" />
<glyph unicode="6" horiz-adv-x="1116" d="M156 381q0 113 46.5 213t141.5 211l440 524h265l-400 -467q36 8 84 8q179 0 292.5 -110.5t113.5 -272.5q0 -146 -71.5 -262t-195.5 -179.5t-276 -63.5q-192 0 -316 112t-124 287zM379 418q0 -101 66.5 -163t172.5 -62q126 0 210.5 76.5t84.5 199.5q0 95 -65.5 158 t-169.5 63q-132 0 -215.5 -77.5t-83.5 -194.5z" />
<glyph unicode="7" horiz-adv-x="1026" d="M158 0l753 1108h-661l37 221h919l-32 -194l-754 -1135h-262z" />
<glyph unicode="8" horiz-adv-x="1157" d="M156 348q0 150 75 252t207 154q-92 78 -92 200q0 173 126.5 284.5t328.5 111.5q168 0 266 -84t98 -213q0 -196 -186 -301q79 -44 122.5 -119t43.5 -176q0 -204 -144.5 -339.5t-388.5 -135.5q-197 0 -326.5 105.5t-129.5 260.5zM383 391q0 -89 70 -143.5t178 -54.5 q129 0 210 67.5t81 183.5q0 89 -66 146t-172 57q-138 0 -219.5 -70.5t-81.5 -185.5zM563 967q0 -63 47.5 -100.5t122.5 -37.5q90 0 150.5 50t60.5 127q0 67 -46.5 106t-121.5 39q-90 0 -151.5 -50.5t-61.5 -133.5z" />
<glyph unicode="9" horiz-adv-x="1114" d="M209 842q0 146 71.5 262t195.5 180t276 64q192 0 316 -112.5t124 -287.5q0 -113 -46.5 -213t-141.5 -211l-441 -524h-264l399 467q-36 -8 -84 -8q-179 0 -292 110t-113 273zM434 860q0 -95 66 -158t170 -63q132 0 215.5 77.5t83.5 194.5q0 101 -67 163.5t-173 62.5 q-126 0 -210.5 -76.5t-84.5 -200.5z" />
<glyph unicode=":" horiz-adv-x="483" d="M119 0l41 242h248l-41 -242h-248zM244 702l41 242h247l-43 -242h-245z" />
<glyph unicode=";" horiz-adv-x="518" d="M84 -176l117 409h219l-178 -409h-158zM268 702l41 242h248l-43 -242h-246z" />
<glyph unicode="&#x3c;" horiz-adv-x="1261" d="M385 649l647 561l133 -153l-495 -420l336 -406l-172 -145z" />
<glyph unicode="=" horiz-adv-x="1261" d="M197 332l36 200h986l-37 -200h-985zM268 741l37 201h985l-37 -201h-985z" />
<glyph unicode="&#x3e;" horiz-adv-x="1267" d="M334 242l493 420l-333 405l170 143l448 -561l-647 -563z" />
<glyph unicode="?" horiz-adv-x="983" d="M217 911q34 210 161.5 324.5t326.5 114.5q175 0 274.5 -86t99.5 -224q0 -68 -20.5 -126t-54 -99.5t-74.5 -77t-83.5 -66t-79 -59t-63.5 -62.5t-34 -71l-11 -55h-208l10 63q11 68 56.5 128t101.5 103.5t110.5 86t91.5 94t37 109.5q0 67 -46 103t-128 36q-100 0 -166 -61 t-86 -175h-215zM369 0l41 227h223l-41 -227h-223z" />
<glyph unicode="@" horiz-adv-x="1966" d="M133 240q0 214 71 398t201 318.5t324 211.5t428 77q226 0 409.5 -89.5t289.5 -254t106 -373.5q0 -295 -135.5 -469t-349.5 -174q-114 0 -182 47.5t-89 130.5q-119 -122 -274 -122q-153 0 -255 111t-102 272q0 192 132.5 324t318.5 132q88 0 157.5 -38.5t114.5 -104.5 l23 129h197l-97 -551q-14 -73 14.5 -105t80.5 -32q101 0 169 118t68 322q0 240 -168.5 384.5t-449.5 144.5q-238 0 -418 -99.5t-277.5 -279.5t-97.5 -416q0 -247 156 -403t413 -156q108 0 186 13t165 48l59 -184q-102 -44 -197.5 -59t-226.5 -15q-167 0 -310.5 57.5 t-242.5 157t-155 236.5t-56 293zM770 338q0 -89 62.5 -150t156.5 -61q100 0 176 75.5t76 182.5q0 87 -60 148t-149 61q-108 0 -185 -74t-77 -182z" />
<glyph unicode="A" horiz-adv-x="1292" d="M27 0l714 1329h275l250 -1329h-215l-56 279h-577l-148 -279h-243zM528 485h428l-110 598z" />
<glyph unicode="B" horiz-adv-x="1210" d="M164 0l233 1329h486q167 0 267.5 -91.5t100.5 -238.5q0 -96 -50 -180.5t-142 -130.5q141 -90 141 -256q0 -189 -135.5 -310.5t-353.5 -121.5h-547zM418 205h330q100 0 165.5 60t65.5 157q0 68 -41.5 113t-108.5 45h-344zM518 776h313q80 0 137.5 58t57.5 141 q0 63 -43 106t-113 43h-290z" />
<glyph unicode="C" horiz-adv-x="1386" d="M195 580q0 209 101.5 386t277 280.5t382.5 103.5q177 0 317.5 -82.5t215.5 -223.5l-201 -110q-48 96 -140 151.5t-212 55.5q-142 0 -260 -73t-185 -197t-67 -271q0 -177 104 -293.5t279 -116.5q251 0 410 197l172 -121q-114 -139 -267.5 -211.5t-335.5 -72.5 q-259 0 -425 168.5t-166 429.5z" />
<glyph unicode="D" horiz-adv-x="1406" d="M164 0l233 1329h439q266 0 437 -163t171 -416q0 -206 -106 -379t-285 -272t-387 -99h-502zM422 209h264q141 0 263 67.5t195 187.5t73 263q0 168 -110 280.5t-292 112.5h-233z" />
<glyph unicode="E" horiz-adv-x="1064" d="M164 0l233 1329h799l-35 -209h-581l-62 -342h526l-34 -207h-527l-63 -360h586l-37 -211h-805z" />
<glyph unicode="F" horiz-adv-x="1013" d="M164 0l233 1329h787l-37 -209h-563l-66 -368h514l-37 -211h-514l-96 -541h-221z" />
<glyph unicode="G" horiz-adv-x="1480" d="M195 580q0 156 61.5 298.5t165 246t246 164.5t297.5 61q149 0 271.5 -58t205.5 -164l-178 -147q-51 74 -134 117t-186 43q-142 0 -262 -73t-189 -197.5t-69 -270.5q0 -176 111.5 -293t293.5 -117q170 0 288 92.5t163 252.5h-391l33 186h612q-3 -211 -95.5 -379.5 t-257 -264t-372.5 -95.5q-176 0 -316 76.5t-219 213t-79 308.5z" />
<glyph unicode="H" horiz-adv-x="1353" d="M164 0l233 1329h221l-94 -549h584l94 549h223l-233 -1329h-223l100 571h-584l-100 -571h-221z" />
<glyph unicode="I" horiz-adv-x="548" d="M164 0l233 1329h221l-233 -1329h-221z" />
<glyph unicode="J" horiz-adv-x="1013" d="M43 154l158 163q88 -127 248 -127q109 0 178 68.5t96 216.5l151 854h224l-156 -872q-23 -134 -68.5 -227.5t-112.5 -147t-146 -77t-181 -23.5q-259 0 -391 172z" />
<glyph unicode="K" horiz-adv-x="1222" d="M164 0l233 1329h219l-110 -629l637 629h276l-612 -600l424 -729h-250l-336 571l-194 -188l-68 -383h-219z" />
<glyph unicode="L" horiz-adv-x="1001" d="M164 0l233 1329h242l-197 -1116h562l-37 -213h-803z" />
<glyph unicode="M" horiz-adv-x="1767" d="M164 0l233 1329h330l193 -1085l571 1085h346l-233 -1329h-222l185 1044l-559 -1044h-248l-193 1028l-182 -1028h-221z" />
<glyph unicode="N" horiz-adv-x="1490" d="M164 0l233 1329h201l573 -964l168 964h222l-234 -1329h-199l-573 971l-170 -971h-221z" />
<glyph unicode="O" horiz-adv-x="1538" d="M195 580q0 208 104.5 385.5t284 281t389.5 103.5q266 0 437 -169t171 -431q0 -211 -106.5 -388t-286 -278.5t-387.5 -101.5q-173 0 -311.5 76.5t-216.5 213t-78 308.5zM422 600q0 -175 110.5 -292.5t290.5 -117.5q140 0 261.5 70t194.5 194t73 273q0 176 -110 295 t-290 119q-144 0 -266 -73t-193 -197.5t-71 -270.5z" />
<glyph unicode="P" horiz-adv-x="1132" d="M164 0l233 1329h443q183 0 294 -107.5t111 -269.5q0 -228 -151.5 -363.5t-388.5 -135.5h-238l-82 -453h-221zM502 659h237q126 0 203.5 74.5t77.5 194.5q0 90 -53.5 143t-149.5 53h-233z" />
<glyph unicode="Q" horiz-adv-x="1527" d="M195 580q0 208 104.5 385.5t284 281t389.5 103.5q266 0 437 -169t171 -431q0 -164 -66 -310t-182 -252l105 -133l-178 -139l-113 145q-164 -79 -346 -79q-173 0 -311.5 76.5t-216.5 213t-78 308.5zM422 600q0 -175 110.5 -292.5t290.5 -117.5q106 0 193 37l-197 254 l178 140l207 -267q148 158 148 373q0 176 -110 295t-290 119q-144 0 -266 -73t-193 -197.5t-71 -270.5z" />
<glyph unicode="R" horiz-adv-x="1173" d="M164 0l233 1329h422q200 0 308 -105.5t108 -265.5q0 -159 -89.5 -271.5t-240.5 -156.5l209 -530h-244l-196 506h-211l-88 -506h-211zM496 680h231q127 0 208 73t81 187q0 87 -55.5 141t-161.5 54h-224z" />
<glyph unicode="S" horiz-adv-x="1128" d="M92 211l180 143q108 -164 342 -164q129 0 202 51.5t73 141.5q0 46 -21 81.5t-57 58t-82 40.5t-97.5 34.5t-102.5 34.5t-97 45.5t-82 63t-57 91t-21 126.5q0 173 142 282.5t366 109.5q150 0 271.5 -56t183.5 -159l-174 -148q-40 71 -118 112.5t-171 41.5q-122 0 -197 -47 t-75 -125q0 -40 26.5 -71.5t70 -52t99.5 -43.5t114 -43t114 -52.5t99.5 -71t70 -99t26.5 -135.5q0 -103 -40 -184t-110.5 -132t-162.5 -77t-201 -26q-384 0 -514 229z" />
<glyph unicode="T" horiz-adv-x="1134" d="M231 1122l35 207h1069l-37 -207h-421l-199 -1122h-221l196 1122h-422z" />
<glyph unicode="U" horiz-adv-x="1427" d="M244 543l139 786h221l-137 -778q-9 -53 -10 -98q0 -109 56 -173q78 -90 239 -90q337 0 401 361l135 778h223l-139 -786q-95 -561 -639 -561q-128 0 -229 36t-168 106q-66 68 -91 176q-13 55 -13 117q0 60 12 126z" />
<glyph unicode="V" horiz-adv-x="1325" d="M258 1329h227l211 -1106l602 1106h236l-737 -1329h-269z" />
<glyph unicode="W" horiz-adv-x="2017" d="M258 1329h225l123 -1073l510 1073h246l131 -1073l504 1073h229l-639 -1329h-268l-131 1016l-490 -1016h-268z" />
<glyph unicode="X" horiz-adv-x="1220" d="M12 0l580 682l-334 647h254l240 -489l411 489h264l-563 -657l344 -672h-250l-247 502l-430 -502h-269z" />
<glyph unicode="Y" horiz-adv-x="1302" d="M260 1329h250l266 -594l471 594h260l-649 -794l-94 -535h-223l94 535z" />
<glyph unicode="Z" horiz-adv-x="1134" d="M76 0l28 170l844 954h-674l37 205h979l-28 -170l-842 -954h674l-37 -205h-981z" />
<glyph unicode="[" horiz-adv-x="743" d="M106 -305l289 1634h533l-33 -188h-315l-222 -1258h316l-33 -188h-535z" />
<glyph unicode="\" horiz-adv-x="737" d="M285 1329h200l199 -1329h-199z" />
<glyph unicode="]" horiz-adv-x="743" d="M-4 -305l35 188h315l221 1258h-315l33 188h534l-289 -1634h-534z" />
<glyph unicode="^" horiz-adv-x="1261" d="M256 600l485 729h246l230 -729h-209l-166 551l-357 -551h-229z" />
<glyph unicode="_" horiz-adv-x="1081" d="M41 -256l35 201h907l-35 -201h-907z" />
<glyph unicode="`" horiz-adv-x="1228" d="M348 1286l103 176l428 -229l-93 -162z" />
<glyph unicode="a" horiz-adv-x="1245" d="M152 438q0 114 43.5 217t116.5 176.5t173 116.5t209 43t194 -47.5t138 -128.5l29 158h217l-172 -973h-217l20 121q-139 -139 -319 -139q-186 0 -309 132t-123 324zM362 455q0 -114 79.5 -193.5t199.5 -79.5q129 0 226.5 98.5t97.5 237.5q0 114 -76.5 193.5t-190.5 79.5 q-139 0 -237.5 -98t-98.5 -238z" />
<glyph unicode="b" horiz-adv-x="1245" d="M143 0l244 1382h217l-94 -530q139 139 321 139q186 0 309.5 -132.5t123.5 -326.5q0 -151 -74 -278t-198.5 -199.5t-270.5 -72.5q-109 0 -194 47.5t-138 128.5l-29 -158h-217zM451 455q0 -114 76 -193.5t190 -79.5q139 0 237.5 98t98.5 238q0 114 -79.5 193.5t-199.5 79.5 q-129 0 -226 -98.5t-97 -237.5z" />
<glyph unicode="c" horiz-adv-x="1046" d="M152 438q0 153 75 280t204 200t282 73q134 0 243.5 -65t169.5 -174l-190 -103q-35 65 -99 103.5t-145 38.5q-137 0 -233.5 -97.5t-96.5 -238.5q0 -114 77.5 -193.5t197.5 -79.5q79 0 151.5 36.5t116.5 98.5l168 -110q-77 -104 -198.5 -164.5t-258.5 -60.5 q-197 0 -330.5 132.5t-133.5 323.5z" />
<glyph unicode="d" horiz-adv-x="1243" d="M152 438q0 114 43.5 217t116.5 176.5t173 116.5t209 43t194 -47.5t138 -128.5l100 567h217l-243 -1382h-217l20 121q-139 -139 -319 -139q-186 0 -309 132t-123 324zM362 455q0 -114 79.5 -193.5t199.5 -79.5q129 0 226.5 98.5t97.5 237.5q0 114 -76.5 193.5t-190.5 79.5 q-139 0 -237.5 -98t-98.5 -238z" />
<glyph unicode="e" horiz-adv-x="1130" d="M152 438q0 114 44 217t118.5 176.5t176.5 116.5t214 43q197 0 326.5 -127t129.5 -317q0 -47 -18 -121h-778q9 -109 86.5 -179.5t199.5 -70.5q129 0 246 111l147 -131q-97 -93 -198.5 -133.5t-229.5 -40.5q-197 0 -330.5 132.5t-133.5 323.5zM385 586h559 q-19 93 -89.5 152t-170.5 59q-103 0 -183 -58t-116 -153z" />
<glyph unicode="f" horiz-adv-x="716" d="M205 762l39 211h145l6 35q67 395 477 395q32 0 52 -2l-37 -211q-20 2 -45 2q-98 0 -156 -42t-74 -142l-6 -35h242l-37 -211h-242l-135 -762h-217l135 762h-147z" />
<glyph unicode="g" horiz-adv-x="1241" d="M80 -352l110 182q139 -102 324 -102q151 0 250.5 81t128.5 236l14 78q-141 -141 -323 -141q-185 0 -308.5 132t-123.5 324q0 114 43.5 217t117 176.5t173.5 116.5t208 43t193.5 -48t138.5 -130l29 160h217l-162 -918q-47 -268 -197.5 -397t-416.5 -129 q-119 0 -231.5 31.5t-184.5 87.5zM362 455q0 -114 79.5 -193.5t199.5 -79.5q131 0 228.5 98.5t97.5 237.5q0 114 -77.5 193.5t-191.5 79.5q-139 0 -237.5 -98t-98.5 -238z" />
<glyph unicode="h" d="M143 0l244 1382h213l-96 -546q56 79 137.5 117t173.5 38q185 0 275 -111q64 -79 63 -209q0 -52 -10 -112l-99 -559h-217l95 537q7 38 7 71q0 72 -33 117q-48 66 -153 66q-102 0 -184 -68t-104 -193v7l-95 -537h-217z" />
<glyph unicode="i" horiz-adv-x="503" d="M143 0l172 973h217l-172 -973h-217zM342 1153l41 227h225l-41 -227h-225z" />
<glyph unicode="j" horiz-adv-x="503" d="M-139 -469l37 211q20 -2 41 -2q156 0 192 184l184 1049h217l-184 -1049q-38 -219 -139 -307t-279 -88q-46 0 -69 2zM342 1153l41 227h225l-41 -227h-225z" />
<glyph unicode="k" horiz-adv-x="1052" d="M143 0l244 1382h217l-141 -800l452 391h281l-471 -412l338 -561h-244l-260 416l-147 -129l-52 -287h-217z" />
<glyph unicode="l" horiz-adv-x="503" d="M143 0l244 1382h217l-244 -1382h-217z" />
<glyph unicode="m" horiz-adv-x="1771" d="M143 0l172 973h213l-24 -131q120 149 305 149q110 0 181.5 -48.5t103.5 -137.5q131 186 356 186q179 0 256 -121q52 -82 53 -199q0 -54 -12 -116l-98 -555h-217l96 537q8 42 8 77q0 67 -28 111q-42 66 -142 66q-85 0 -158.5 -64t-101.5 -164q-2 -4 -2 -8l-98 -555h-218 l95 537q8 42 8 77q0 67 -28 111q-42 66 -142 66q-92 0 -169 -73.5t-97 -187.5v5l-95 -535h-217z" />
<glyph unicode="n" d="M143 0l172 973h213l-24 -137q56 79 137.5 117t173.5 38q185 0 275 -111q64 -79 63 -209q0 -52 -10 -112l-99 -559h-217l95 537q7 38 7 71q0 72 -33 117q-48 66 -153 66q-102 0 -184 -68t-104 -193v7l-95 -537h-217z" />
<glyph unicode="o" d="M158 438q0 114 45 217t121.5 176.5t181 116.5t219.5 43q198 0 334.5 -133.5t136.5 -325.5q0 -152 -76.5 -278.5t-206.5 -199t-284 -72.5q-198 0 -334.5 132.5t-136.5 323.5zM369 455q0 -114 79 -193.5t199 -79.5q139 0 238.5 97.5t99.5 236.5q0 115 -80 195t-200 80 q-138 0 -237 -98t-99 -238z" />
<glyph unicode="p" horiz-adv-x="1245" d="M63 -451l252 1424h217l-20 -121q139 139 319 139q186 0 309.5 -132.5t123.5 -326.5q0 -151 -74 -278t-198.5 -199.5t-270.5 -72.5q-109 0 -194 47.5t-138 128.5l-108 -609h-218zM451 455q0 -114 76 -193.5t190 -79.5q139 0 237.5 98t98.5 238q0 114 -79.5 193.5 t-199.5 79.5q-129 0 -226 -98.5t-97 -237.5z" />
<glyph unicode="q" horiz-adv-x="1245" d="M152 438q0 114 43.5 217t116.5 176.5t173 116.5t209 43q108 0 193 -47.5t139 -128.5l29 158h217l-250 -1424h-217l100 572q-139 -139 -321 -139q-186 0 -309 132t-123 324zM362 455q0 -114 79.5 -193.5t199.5 -79.5q129 0 226.5 98.5t97.5 237.5q0 114 -76.5 193.5 t-190.5 79.5q-139 0 -237.5 -98t-98.5 -238z" />
<glyph unicode="r" horiz-adv-x="737" d="M143 0l172 973h222l-35 -191q97 209 370 209l-43 -243q-14 2 -38 2q-49 0 -101 -17t-103.5 -51.5t-90.5 -96.5t-54 -143l-77 -442h-222z" />
<glyph unicode="s" horiz-adv-x="925" d="M90 207l203 98q57 -139 217 -139q82 0 128 29.5t46 83.5q0 34 -26 58.5t-67 40.5t-90.5 31t-99.5 36.5t-91 51t-67 79.5t-26 116q0 131 109.5 216t283.5 85q126 0 224 -52.5t141 -143.5l-203 -99q-42 111 -170 111q-72 0 -117 -29.5t-45 -79.5q0 -31 26 -55t67 -41 t90.5 -33.5t99.5 -39t91 -52t67 -78t26 -110.5q0 -147 -108 -228t-303 -81q-316 0 -406 225z" />
<glyph unicode="t" horiz-adv-x="710" d="M178 762l39 211h180l43 248h217l-43 -248h242l-39 -211h-239l-136 -762h-217l135 762h-182z" />
<glyph unicode="u" horiz-adv-x="1169" d="M199 414l98 559h217l-94 -537q-7 -39 -7 -72q0 -71 32 -116q47 -66 151 -66t186.5 67.5t104.5 192.5v-6l94 537h217l-172 -973h-213l27 141q-57 -81 -140 -120t-176 -39q-184 0 -273 111q-63 78 -63 206q0 53 11 115z" />
<glyph unicode="v" horiz-adv-x="1069" d="M197 973h219l155 -717l410 717h236l-570 -973h-223z" />
<glyph unicode="w" horiz-adv-x="1669" d="M199 973h229l104 -697l367 697h197l123 -697l352 697h246l-529 -973h-209l-125 680l-354 -680h-221z" />
<glyph unicode="x" horiz-adv-x="991" d="M14 0l449 502l-256 471h237l166 -307l273 307h245l-421 -473l270 -500h-232l-180 332l-297 -332h-254z" />
<glyph unicode="y" horiz-adv-x="1095" d="M156 -451l284 455l-252 969h236l172 -709l393 709h256l-862 -1424h-227z" />
<glyph unicode="z" horiz-adv-x="942" d="M84 0l35 197l598 585h-496l35 191h776l-35 -193l-596 -590h494l-35 -190h-776z" />
<glyph unicode="{" horiz-adv-x="749" d="M129 416l35 192q97 6 148 57t71 166l45 246q21 125 89.5 188.5t197.5 63.5h217l-33 -188h-129q-59 0 -91.5 -33.5t-43.5 -103.5l-37 -201q-23 -125 -82 -193t-164 -96q93 -31 129.5 -105.5t14.5 -185.5l-35 -203q-13 -68 7 -102.5t85 -34.5h125l-35 -188h-201 q-118 0 -176 73t-39 181l45 246q20 114 -13 165t-130 56z" />
<glyph unicode="|" horiz-adv-x="538" d="M127 -180l266 1509h219l-266 -1509h-219z" />
<glyph unicode="}" horiz-adv-x="749" d="M0 -305l31 188h131q59 0 91 34t44 103l37 203q21 124 80.5 191.5t165.5 97.5q-187 61 -146 291l37 201q13 68 -8 102.5t-84 34.5h-125l33 188h200q120 0 178 -72.5t37 -179.5l-43 -246q-20 -115 13.5 -166.5t130.5 -56.5l-35 -192q-98 -6 -148.5 -56t-72.5 -165l-43 -246 q-21 -127 -89.5 -190.5t-197.5 -63.5h-217z" />
<glyph unicode="~" horiz-adv-x="1261" d="M229 514q24 131 100.5 204t202.5 73q83 0 160 -21.5t143.5 -43t122.5 -21.5q90 0 99 86h211q-24 -131 -100.5 -204t-202.5 -73q-79 0 -159 21.5t-145.5 43t-111.5 21.5q-93 0 -111 -86h-209z" />
<glyph unicode="&#xa1;" horiz-adv-x="491" d="M72 -356l73 417l134 488h129l-41 -488l-74 -417h-221zM266 745l39 228h223l-39 -228h-223z" />
<glyph unicode="&#xa2;" horiz-adv-x="1044" d="M195 623q0 198 130 341t326 166l35 199h193l-37 -211q86 -23 154 -77t108 -130l-189 -100q-32 57 -87.5 90t-127.5 33q-125 0 -211 -85.5t-86 -211.5q0 -102 69 -172t175 -70q73 0 136.5 32.5t105.5 88.5l166 -110q-65 -87 -161.5 -141t-209.5 -66l-37 -199h-192l39 217 q-133 40 -216 151t-83 255z" />
<glyph unicode="&#xa3;" horiz-adv-x="1101" d="M94 0l33 184q56 44 87 71t71.5 68.5t64 84.5t35.5 92h-199l35 194h162q-3 12 -14 45t-16.5 52.5t-11 55t-5.5 71.5q0 189 128.5 310.5t334.5 121.5q217 0 319 -117t66 -309h-221q18 93 -29 153t-146 60q-102 0 -166.5 -57.5t-64.5 -168.5q0 -37 7 -71t23.5 -83.5 t20.5 -62.5h381l-35 -194h-346q-41 -145 -215 -277h656l-41 -223h-914z" />
<glyph unicode="&#xa4;" horiz-adv-x="1263" d="M172 309l176 152q-51 88 -51 190q0 169 111 299l-123 150l149 129l129 -158q113 55 240 55q135 0 239 -69l181 151l116 -137l-168 -147q52 -90 52 -193q0 -172 -117 -305l115 -143l-150 -127l-125 151q-105 -51 -229 -51q-133 0 -242 72l-186 -156zM500 666 q0 -95 66.5 -160.5t168.5 -65.5q119 0 202 81t83 196q0 94 -67.5 159.5t-168.5 65.5q-118 0 -201 -80t-83 -196z" />
<glyph unicode="&#xa5;" horiz-adv-x="1359" d="M188 309l27 162h438l11 64l-56 118h-360l31 162h251l-241 514h250l266 -594l471 594h260l-420 -514h254l-29 -162h-358l-96 -118l-10 -64h432l-27 -162h-434l-55 -309h-224l56 309h-437z" />
<glyph unicode="&#xa6;" horiz-adv-x="538" d="M127 -180l102 583h220l-103 -583h-219zM291 745l102 584h219l-102 -584h-219z" />
<glyph unicode="&#xa7;" horiz-adv-x="1032" d="M90 -66l158 125q41 -60 109.5 -90t148.5 -30q104 0 161.5 31.5t57.5 90.5q0 42 -30 75t-77.5 55.5t-105.5 44t-115.5 48.5t-105 60.5t-77.5 87.5t-30 123q0 91 55.5 160t157.5 108q-100 76 -100 209q0 140 125 229t323 89q124 0 232.5 -46.5t161.5 -125.5l-156 -123 q-86 119 -254 119q-107 0 -165 -36t-58 -102q0 -38 29.5 -67.5t77 -50t105 -40t115 -45.5t105 -59.5t77 -88t29.5 -124.5q0 -95 -57 -166.5t-162 -109.5q107 -80 107 -209q0 -144 -121 -229t-319 -85q-127 0 -240 47t-162 125zM393 573q0 -28 13 -52.5t31 -41t52 -35t59 -29 t70.5 -29t69.5 -28.5q71 23 109.5 70.5t38.5 110.5q0 31 -13.5 57.5t-30 43t-53 35t-58.5 27t-72 26l-70 24.5q-70 -23 -108 -69.5t-38 -109.5z" />
<glyph unicode="&#xa8;" horiz-adv-x="1228" d="M360 1151l41 231h232l-41 -231h-232zM795 1151l41 231h231l-41 -231h-231z" />
<glyph unicode="&#xa9;" horiz-adv-x="1542" d="M195 580q0 156 62 298.5t166.5 246t248.5 164.5t301 61q266 0 437 -169t171 -431q0 -210 -106.5 -387.5t-285 -279t-386.5 -101.5q-263 0 -435.5 169t-172.5 429zM350 590q0 -131 56.5 -237.5t163 -169t243.5 -62.5q163 0 303 80t224.5 222t84.5 312q0 132 -55 239 t-161.5 171.5t-245.5 64.5q-165 0 -306.5 -83.5t-224 -226.5t-82.5 -310zM508 631q0 174 123.5 295t300.5 121q102 0 186 -49t127 -132l-143 -75q-27 47 -75.5 74.5t-108.5 27.5q-103 0 -176.5 -72.5t-73.5 -177.5q0 -89 57 -147t149 -58q61 0 115.5 27t89.5 74l125 -84 q-59 -80 -150 -126t-194 -46q-150 0 -251 100.5t-101 247.5z" />
<glyph unicode="&#xaa;" horiz-adv-x="907" d="M248 973q0 152 106 260t264 108q137 0 207 -102l17 90h172l-113 -639h-174l14 76q-93 -90 -215 -90q-119 0 -198.5 84.5t-79.5 212.5zM430 987q0 -62 42 -101.5t108 -39.5q75 0 127.5 53.5t52.5 130.5q0 61 -41.5 101t-106.5 40q-76 0 -129 -53.5t-53 -130.5z" />
<glyph unicode="&#xab;" horiz-adv-x="1085" d="M143 475l357 356h231l-360 -364l219 -346h-219zM553 475l356 356h232l-361 -366l219 -344h-217z" />
<glyph unicode="&#xac;" horiz-adv-x="1261" d="M225 526l35 201h985l-90 -502h-221l53 301h-762z" />
<glyph unicode="&#xad;" horiz-adv-x="841" d="M201 469l35 199h606l-35 -199h-606z" />
<glyph unicode="&#xae;" horiz-adv-x="1542" d="M195 580q0 156 62 298.5t166.5 246t248.5 164.5t301 61q266 0 437 -169t171 -431q0 -210 -106.5 -387.5t-285 -279t-386.5 -101.5q-263 0 -435.5 169t-172.5 429zM350 590q0 -131 56.5 -237.5t163 -169t243.5 -62.5q163 0 303 80t224.5 222t84.5 312q0 132 -55 239 t-161.5 171.5t-245.5 64.5q-165 0 -306.5 -83.5t-224 -226.5t-82.5 -310zM590 311l129 738h258q113 0 180.5 -57t67.5 -163q0 -81 -52 -144t-139 -89l117 -285h-174l-98 269h-84l-47 -269h-158zM815 705h109q66 0 105.5 30.5t39.5 85.5q0 43 -28 66.5t-78 23.5h-109z" />
<glyph unicode="&#xaf;" horiz-adv-x="1228" d="M330 1182l35 192h673l-32 -192h-676z" />
<glyph unicode="&#xb0;" horiz-adv-x="763" d="M256 1014q0 137 98.5 231t237.5 94q118 0 199 -78.5t81 -191.5q0 -136 -98 -230t-237 -94q-118 0 -199.5 78t-81.5 191zM420 1028q0 -53 36.5 -89t94.5 -36q65 0 111.5 45t46.5 109q0 53 -36.5 90t-94.5 37q-65 0 -111.5 -46t-46.5 -110z" />
<glyph unicode="&#xb1;" horiz-adv-x="1261" d="M154 86l36 201h984l-35 -201h-985zM262 709l37 202h391l55 318h203l-55 -318h391l-37 -202h-391l-55 -318h-203l55 318h-391z" />
<glyph unicode="&#xb2;" horiz-adv-x="798" d="M213 563l25 139l301 230q67 50 99 85t32 75q0 32 -20 48.5t-54 16.5q-43 0 -71.5 -25.5t-35.5 -72.5h-192q23 139 107 210.5t214 71.5q122 0 186 -58t64 -157q0 -49 -17 -93t-51 -82t-63 -63.5t-73 -58.5l-123 -94h278l-31 -172h-575z" />
<glyph unicode="&#xb3;" horiz-adv-x="743" d="M211 776l182 60q8 -107 115 -107q46 0 74 25t28 67q0 38 -26.5 60t-71.5 22h-23l-51 98l176 156h-295l31 172h510l-31 -172l-172 -162q73 -19 106.5 -67t33.5 -111q0 -122 -85 -194t-214 -72q-130 0 -207.5 61t-79.5 164z" />
<glyph unicode="&#xb4;" horiz-adv-x="1228" d="M326 1241l510 229l65 -184l-512 -215z" />
<glyph unicode="&#xb5;" horiz-adv-x="1171" d="M96 -258l217 1231h211l-92 -524q-24 -134 33.5 -205.5t181.5 -71.5q211 0 254 244l98 557h209l-102 -582q-37 -215 -149.5 -314.5t-282.5 -99.5q-239 0 -297 162l-70 -397h-211z" />
<glyph unicode="&#xb6;" horiz-adv-x="1308" d="M207 846q0 208 138.5 345.5t363.5 137.5h743l-31 -180h-118l-234 -1329h-180l233 1329h-200l-234 -1329h-196l118 680h-47q-167 0 -261.5 94.5t-94.5 251.5z" />
<glyph unicode="&#xb7;" horiz-adv-x="483" d="M199 455l43 243h247l-43 -243h-247z" />
<glyph unicode="&#xb8;" horiz-adv-x="1228" d="M49 -426l111 109q13 -26 46 -43t70 -17q49 0 77 22t28 60q0 70 -82 70h-152l132 250h141l-66 -123h27q71 0 120.5 -50.5t49.5 -132.5q0 -103 -76.5 -168t-206.5 -65q-148 0 -219 88z" />
<glyph unicode="&#xb9;" horiz-adv-x="575" d="M252 1139l33 190h395l-135 -766h-219l102 576h-176z" />
<glyph unicode="&#xba;" horiz-adv-x="833" d="M248 973q0 149 111.5 258.5t265.5 109.5q138 0 227.5 -85t89.5 -214q0 -150 -110 -258t-265 -108q-139 0 -229 84t-90 213zM432 987q0 -60 42 -99.5t106 -39.5q73 0 125.5 53.5t52.5 128.5q0 60 -41.5 99.5t-104.5 39.5q-75 0 -127.5 -53.5t-52.5 -128.5z" />
<glyph unicode="&#xbb;" horiz-adv-x="1085" d="M113 121l360 362l-219 348h219l227 -356l-356 -354h-231zM524 121l361 364l-221 346h219l229 -356l-356 -354h-232z" />
<glyph unicode="&#xbc;" horiz-adv-x="1591" d="M256 1139l33 190h395l-135 -766h-219l102 576h-176zM326 0l870 1329h184l-868 -1329h-186zM999 158l31 174l240 434h215l-242 -434h170l33 186h196l-32 -186h84l-31 -174h-84l-29 -158h-196l28 158h-383z" />
<glyph unicode="&#xbd;" horiz-adv-x="1587" d="M254 1139l33 190h395l-133 -766h-219l100 576h-176zM328 0l868 1329h186l-870 -1329h-184zM1038 0l25 141l299 228q67 49 99 84t32 75q0 66 -74 66q-88 0 -104 -98h-193q23 139 107 210.5t215 71.5q122 0 185 -57t63 -158q0 -48 -17 -91.5t-51 -82t-63 -64.5t-74 -59 l-123 -94h278l-28 -172h-576z" />
<glyph unicode="&#xbe;" horiz-adv-x="1722" d="M197 776l182 60q11 -107 115 -107q46 0 75 25t29 67q0 38 -27.5 60t-70.5 22h-23l-53 98l176 156h-293l29 172h510l-29 -172l-172 -162q72 -19 105.5 -67.5t33.5 -110.5q0 -122 -86 -194t-215 -72q-130 0 -206.5 61t-79.5 164zM461 0l868 1329h184l-868 -1329h-184z M1133 158l30 174l242 434h213l-242 -434h170l33 186h197l-33 -186h84l-31 -174h-84l-29 -158h-196l29 158h-383z" />
<glyph unicode="&#xbf;" horiz-adv-x="960" d="M61 -68q0 79 28 145t70 108.5t93 83.5t95.5 71.5t79 71t42.5 82.5l12 55h207l-10 -64q-9 -58 -42.5 -110t-77 -88.5t-92.5 -76t-89.5 -73t-67 -78.5t-26.5 -94q0 -67 46 -103t126 -36q101 0 167.5 61t86.5 174h215q-35 -210 -163 -324t-327 -114q-175 0 -274 85.5 t-99 223.5zM506 745l41 228h225l-41 -228h-225z" />
<glyph unicode="&#xc0;" horiz-adv-x="1292" d="M27 0l714 1329h275l250 -1329h-215l-56 279h-577l-148 -279h-243zM528 485h428l-110 598zM653 1632l103 176l428 -229l-92 -162z" />
<glyph unicode="&#xc1;" horiz-adv-x="1292" d="M27 0l714 1329h275l250 -1329h-215l-56 279h-577l-148 -279h-243zM528 485h428l-110 598zM637 1587l510 230l65 -185l-512 -215z" />
<glyph unicode="&#xc2;" horiz-adv-x="1292" d="M27 0l714 1329h275l250 -1329h-215l-56 279h-577l-148 -279h-243zM528 485h428l-110 598zM547 1573l366 244h103l282 -244l-120 -141l-232 182l-313 -195z" />
<glyph unicode="&#xc3;" horiz-adv-x="1292" d="M27 0l714 1329h275l250 -1329h-215l-56 279h-577l-148 -279h-243zM518 1499q15 128 86 202.5t178 74.5q63 0 116.5 -22t97.5 -44t83 -22q43 0 65.5 21t31.5 65h176q-21 -130 -88.5 -203.5t-173.5 -73.5q-51 0 -97 13.5t-74 30.5t-62.5 30.5t-65.5 13.5q-80 0 -97 -86 h-176zM528 485h428l-110 598z" />
<glyph unicode="&#xc4;" horiz-adv-x="1292" d="M27 0l714 1329h275l250 -1329h-215l-56 279h-577l-148 -279h-243zM528 485h428l-110 598zM557 1495l45 252h256l-45 -252h-256zM1006 1495l45 252h256l-45 -252h-256z" />
<glyph unicode="&#xc5;" horiz-adv-x="1292" d="M27 0l714 1329h275l250 -1329h-215l-56 279h-577l-148 -279h-243zM528 485h428l-110 598zM680 1636q0 112 82 194.5t207 82.5q104 0 168.5 -60t64.5 -155q0 -110 -83 -193.5t-208 -83.5q-103 0 -167 60t-64 155zM834 1653q0 -39 24.5 -63.5t67.5 -24.5q53 0 88 34t35 84 q0 38 -25.5 63.5t-69.5 25.5q-52 0 -86 -35.5t-34 -83.5z" />
<glyph unicode="&#xc6;" horiz-adv-x="1798" d="M-27 0l1043 1329h913l-35 -209h-579l-62 -342h527l-37 -207h-526l-64 -360h588l-39 -211h-805l51 295h-471l-227 -295h-277zM635 500h350l102 585z" />
<glyph unicode="&#xc7;" horiz-adv-x="1372" d="M195 580q0 209 101.5 386t277 280.5t382.5 103.5q177 0 317.5 -82.5t215.5 -223.5l-201 -110q-48 96 -140 151.5t-212 55.5q-142 0 -260 -73t-185 -197t-67 -271q0 -177 104 -293.5t279 -116.5q251 0 410 197l172 -121q-232 -284 -598 -284l-43 -80h26q71 0 120.5 -50.5 t49.5 -132.5q0 -103 -76 -168t-206 -65q-149 0 -220 88l111 109q13 -26 46.5 -43t70.5 -17q49 0 76.5 22t27.5 60q0 70 -82 70h-151l114 219q-207 42 -333.5 201t-126.5 385z" />
<glyph unicode="&#xc8;" horiz-adv-x="1064" d="M164 0l233 1329h799l-35 -209h-581l-62 -342h526l-34 -207h-527l-63 -360h586l-37 -211h-805zM604 1632l103 176l428 -229l-93 -162z" />
<glyph unicode="&#xc9;" horiz-adv-x="1064" d="M164 0l233 1329h799l-35 -209h-581l-62 -342h526l-34 -207h-527l-63 -360h586l-37 -211h-805zM588 1587l510 230l65 -185l-512 -215z" />
<glyph unicode="&#xca;" horiz-adv-x="1064" d="M164 0l233 1329h799l-35 -209h-581l-62 -342h526l-34 -207h-527l-63 -360h586l-37 -211h-805zM498 1573l366 244h103l282 -244l-121 -141l-231 182l-313 -195z" />
<glyph unicode="&#xcb;" horiz-adv-x="1064" d="M164 0l233 1329h799l-35 -209h-581l-62 -342h526l-34 -207h-527l-63 -360h586l-37 -211h-805zM508 1495l45 252h256l-45 -252h-256zM956 1495l45 252h256l-45 -252h-256z" />
<glyph unicode="&#xcc;" horiz-adv-x="548" d="M164 0l233 1329h221l-233 -1329h-221zM283 1632l100 176l430 -229l-94 -162z" />
<glyph unicode="&#xcd;" horiz-adv-x="548" d="M164 0l233 1329h221l-233 -1329h-221zM266 1587l508 230l66 -185l-512 -215z" />
<glyph unicode="&#xce;" horiz-adv-x="548" d="M164 0l233 1329h221l-233 -1329h-221zM176 1573l367 244h100l283 -244l-119 -141l-232 182l-315 -195z" />
<glyph unicode="&#xcf;" horiz-adv-x="548" d="M164 0l233 1329h221l-233 -1329h-221zM184 1495l45 252h256l-45 -252h-256zM635 1495l45 252h256l-45 -252h-256z" />
<glyph unicode="&#xd0;" horiz-adv-x="1425" d="M158 569l32 193h132l100 567h440q266 0 437 -163t171 -416q0 -206 -106.5 -379t-285 -272t-386.5 -99h-504l101 569h-131zM446 209h267q141 0 262 67.5t193.5 187.5t72.5 263q0 168 -109.5 280.5t-289.5 112.5h-236l-63 -358h350l-33 -193h-350z" />
<glyph unicode="&#xd1;" horiz-adv-x="1490" d="M164 0l233 1329h201l573 -964l168 964h222l-234 -1329h-199l-573 971l-170 -971h-221zM623 1499q15 128 86 202.5t178 74.5q63 0 116.5 -22t97.5 -44t83 -22q43 0 65 21t31 65h176q-21 -130 -88.5 -203.5t-173.5 -73.5q-64 0 -119 22t-99 44t-83 22q-77 0 -94 -86h-176z " />
<glyph unicode="&#xd2;" horiz-adv-x="1527" d="M195 580q0 208 104.5 385.5t284 281t389.5 103.5q266 0 437 -169t171 -431q0 -211 -106.5 -388t-286 -278.5t-387.5 -101.5q-173 0 -311.5 76.5t-216.5 213t-78 308.5zM422 600q0 -175 110.5 -292.5t290.5 -117.5q140 0 261.5 70t194.5 194t73 273q0 176 -110 295 t-290 119q-144 0 -266 -73t-193 -197.5t-71 -270.5zM770 1632l102 176l428 -229l-92 -162z" />
<glyph unicode="&#xd3;" horiz-adv-x="1527" d="M195 580q0 208 104.5 385.5t284 281t389.5 103.5q266 0 437 -169t171 -431q0 -211 -106.5 -388t-286 -278.5t-387.5 -101.5q-173 0 -311.5 76.5t-216.5 213t-78 308.5zM422 600q0 -175 110.5 -292.5t290.5 -117.5q140 0 261.5 70t194.5 194t73 273q0 176 -110 295 t-290 119q-144 0 -266 -73t-193 -197.5t-71 -270.5zM754 1587l510 230l65 -185l-512 -215z" />
<glyph unicode="&#xd4;" horiz-adv-x="1527" d="M195 580q0 208 104.5 385.5t284 281t389.5 103.5q266 0 437 -169t171 -431q0 -211 -106.5 -388t-286 -278.5t-387.5 -101.5q-173 0 -311.5 76.5t-216.5 213t-78 308.5zM422 600q0 -175 110.5 -292.5t290.5 -117.5q140 0 261.5 70t194.5 194t73 273q0 176 -110 295 t-290 119q-144 0 -266 -73t-193 -197.5t-71 -270.5zM664 1573l366 244h103l282 -244l-119 -141l-233 182l-313 -195z" />
<glyph unicode="&#xd5;" horiz-adv-x="1527" d="M195 580q0 208 104.5 385.5t284 281t389.5 103.5q266 0 437 -169t171 -431q0 -211 -106.5 -388t-286 -278.5t-387.5 -101.5q-173 0 -311.5 76.5t-216.5 213t-78 308.5zM422 600q0 -175 110.5 -292.5t290.5 -117.5q140 0 261.5 70t194.5 194t73 273q0 176 -110 295 t-290 119q-144 0 -266 -73t-193 -197.5t-71 -270.5zM635 1499q15 127 87 202t179 75q49 0 93.5 -14t72.5 -30t63 -30t66 -14q43 0 65.5 21t30.5 65h176q-19 -130 -87 -203.5t-175 -73.5q-64 0 -118.5 22t-98 44t-82.5 22q-76 0 -96 -86h-176z" />
<glyph unicode="&#xd6;" horiz-adv-x="1527" d="M195 580q0 208 104.5 385.5t284 281t389.5 103.5q266 0 437 -169t171 -431q0 -211 -106.5 -388t-286 -278.5t-387.5 -101.5q-173 0 -311.5 76.5t-216.5 213t-78 308.5zM422 600q0 -175 110.5 -292.5t290.5 -117.5q140 0 261.5 70t194.5 194t73 273q0 176 -110 295 t-290 119q-144 0 -266 -73t-193 -197.5t-71 -270.5zM674 1495l45 252h256l-45 -252h-256zM1124 1495l43 252h256l-43 -252h-256z" />
<glyph unicode="&#xd7;" horiz-adv-x="1261" d="M238 330l354 301l-244 295l166 141l244 -295l358 303l123 -149l-358 -303l247 -301l-163 -142l-250 301l-355 -301z" />
<glyph unicode="&#xd8;" horiz-adv-x="1558" d="M96 96l199 168q-84 143 -84 316q0 156 62 298.5t166.5 246t248.5 164.5t301 61q247 0 412 -146l198 168l123 -151l-198 -168q73 -137 73 -303q0 -210 -106.5 -387.5t-285 -279t-386.5 -101.5q-237 0 -399 137l-203 -172zM438 600q0 -101 37 -182l750 637q-107 86 -256 86 q-144 0 -266.5 -73t-193.5 -197.5t-71 -270.5zM596 266q102 -76 244 -76q141 0 262.5 70t194.5 194t73 273q0 88 -31 170z" />
<glyph unicode="&#xd9;" horiz-adv-x="1427" d="M244 543l139 786h221l-137 -778q-32 -182 46 -271.5t239 -89.5q337 0 401 361l135 778h223l-139 -786q-95 -561 -639 -561q-128 0 -229 36t-167.5 105.5t-91.5 177t-1 242.5zM721 1632l102 176l428 -229l-94 -162z" />
<glyph unicode="&#xda;" horiz-adv-x="1427" d="M244 543l139 786h221l-137 -778q-32 -182 46 -271.5t239 -89.5q337 0 401 361l135 778h223l-139 -786q-95 -561 -639 -561q-128 0 -229 36t-167.5 105.5t-91.5 177t-1 242.5zM705 1587l507 230l66 -185l-510 -215z" />
<glyph unicode="&#xdb;" horiz-adv-x="1427" d="M244 543l139 786h221l-137 -778q-32 -182 46 -271.5t239 -89.5q337 0 401 361l135 778h223l-139 -786q-95 -561 -639 -561q-128 0 -229 36t-167.5 105.5t-91.5 177t-1 242.5zM614 1573l367 244h102l281 -244l-119 -141l-231 182l-316 -195z" />
<glyph unicode="&#xdc;" horiz-adv-x="1427" d="M244 543l139 786h221l-137 -778q-32 -182 46 -271.5t239 -89.5q337 0 401 361l135 778h223l-139 -786q-95 -561 -639 -561q-128 0 -229 36t-167.5 105.5t-91.5 177t-1 242.5zM625 1495l43 252h256l-43 -252h-256zM1073 1495l45 252h256l-45 -252h-256z" />
<glyph unicode="&#xdd;" horiz-adv-x="1302" d="M260 1329h250l266 -594l471 594h260l-649 -794l-94 -535h-223l94 535zM639 1587l510 230l65 -185l-512 -215z" />
<glyph unicode="&#xde;" horiz-adv-x="1157" d="M164 0l233 1329h221l-38 -223h221q182 0 293.5 -107.5t111.5 -269.5q0 -229 -151.5 -364.5t-390.5 -135.5h-238l-41 -229h-221zM461 436h237q126 0 204.5 74t78.5 192q0 91 -54 144t-151 53h-233z" />
<glyph unicode="&#xdf;" horiz-adv-x="1140" d="M143 0l166 944q38 216 164 337.5t342 121.5q168 0 270.5 -90t102.5 -230q0 -127 -66.5 -223t-179.5 -141q86 -32 142.5 -107.5t56.5 -169.5q0 -217 -150 -329.5t-411 -112.5h-88l34 201h82q156 0 241 60t85 173q0 84 -60 134t-174 50h-100l33 193h69q122 0 197.5 65.5 t75.5 172.5q0 68 -47.5 111.5t-134.5 43.5q-113 0 -182 -67.5t-91 -190.5l-166 -946h-211z" />
<glyph unicode="&#xe0;" horiz-adv-x="1239" d="M152 438q0 114 43.5 217t116.5 176.5t173 116.5t209 43t194 -47.5t138 -128.5l29 158h217l-172 -973h-217l20 121q-139 -139 -319 -139q-186 0 -309 132t-123 324zM362 455q0 -114 79.5 -193.5t199.5 -79.5q129 0 226.5 98.5t97.5 237.5q0 114 -76.5 193.5t-190.5 79.5 q-139 0 -237.5 -98t-98.5 -238zM553 1286l102 176l428 -229l-92 -162z" />
<glyph unicode="&#xe1;" horiz-adv-x="1239" d="M152 438q0 114 43.5 217t116.5 176.5t173 116.5t209 43t194 -47.5t138 -128.5l29 158h217l-172 -973h-217l20 121q-139 -139 -319 -139q-186 0 -309 132t-123 324zM362 455q0 -114 79.5 -193.5t199.5 -79.5q129 0 226.5 98.5t97.5 237.5q0 114 -76.5 193.5t-190.5 79.5 q-139 0 -237.5 -98t-98.5 -238zM530 1241l510 229l66 -184l-512 -215z" />
<glyph unicode="&#xe2;" horiz-adv-x="1239" d="M152 438q0 114 43.5 217t116.5 176.5t173 116.5t209 43t194 -47.5t138 -128.5l29 158h217l-172 -973h-217l20 121q-139 -139 -319 -139q-186 0 -309 132t-123 324zM362 455q0 -114 79.5 -193.5t199.5 -79.5q129 0 226.5 98.5t97.5 237.5q0 114 -76.5 193.5t-190.5 79.5 q-139 0 -237.5 -98t-98.5 -238zM451 1260l383 243h69l299 -243l-121 -142l-231 182l-313 -196z" />
<glyph unicode="&#xe3;" horiz-adv-x="1239" d="M152 438q0 114 43.5 217t116.5 176.5t173 116.5t209 43t194 -47.5t138 -128.5l29 158h217l-172 -973h-217l20 121q-139 -139 -319 -139q-186 0 -309 132t-123 324zM362 455q0 -114 79.5 -193.5t199.5 -79.5q129 0 226.5 98.5t97.5 237.5q0 114 -76.5 193.5t-190.5 79.5 q-139 0 -237.5 -98t-98.5 -238zM412 1135q15 127 86.5 202.5t177.5 75.5q50 0 94.5 -14.5t72.5 -32.5t63 -32.5t67 -14.5q45 0 70 21t34 71h168q-21 -131 -88.5 -204.5t-173.5 -73.5q-51 0 -97 15t-74 33t-62.5 33t-65.5 15q-89 0 -104 -94h-168z" />
<glyph unicode="&#xe4;" horiz-adv-x="1239" d="M152 438q0 114 43.5 217t116.5 176.5t173 116.5t209 43t194 -47.5t138 -128.5l29 158h217l-172 -973h-217l20 121q-139 -139 -319 -139q-186 0 -309 132t-123 324zM362 455q0 -114 79.5 -193.5t199.5 -79.5q129 0 226.5 98.5t97.5 237.5q0 114 -76.5 193.5t-190.5 79.5 q-139 0 -237.5 -98t-98.5 -238zM475 1151l41 231h232l-41 -231h-232zM909 1151l41 231h232l-41 -231h-232z" />
<glyph unicode="&#xe5;" horiz-adv-x="1239" d="M152 438q0 114 43.5 217t116.5 176.5t173 116.5t209 43t194 -47.5t138 -128.5l29 158h217l-172 -973h-217l20 121q-139 -139 -319 -139q-186 0 -309 132t-123 324zM362 455q0 -114 79.5 -193.5t199.5 -79.5q129 0 226.5 98.5t97.5 237.5q0 114 -76.5 193.5t-190.5 79.5 q-139 0 -237.5 -98t-98.5 -238zM584 1272q0 106 78.5 185t197.5 79q99 0 162 -58t63 -149q0 -105 -79.5 -184.5t-200.5 -79.5q-98 0 -159.5 57.5t-61.5 149.5zM725 1284q0 -38 25.5 -63t68.5 -25q52 0 87.5 35.5t35.5 85.5q0 38 -25.5 63t-68.5 25q-52 0 -87.5 -37 t-35.5 -84z" />
<glyph unicode="&#xe6;" horiz-adv-x="1964" d="M152 438q0 114 43.5 217t116.5 176.5t173 116.5t209 43t194 -47.5t138 -128.5l29 158h202l-20 -113q144 131 332 131q193 0 309.5 -125.5t116.5 -318.5q0 -43 -19 -121h-778q9 -108 83.5 -179t186.5 -71q146 0 265 113l139 -129q-94 -94 -193 -136t-221 -42 q-241 0 -344 184l-29 -166h-202l20 121q-139 -139 -319 -139q-186 0 -309 132t-123 324zM362 455q0 -114 79.5 -193.5t199.5 -79.5q129 0 226.5 98.5t97.5 237.5q0 114 -76.5 193.5t-190.5 79.5q-139 0 -237.5 -98t-98.5 -238zM1217 575h563q-14 100 -82.5 161t-179.5 61 q-101 0 -184 -61.5t-117 -160.5z" />
<glyph unicode="&#xe7;" horiz-adv-x="1067" d="M152 438q0 153 75 280t204 200t282 73q134 0 243.5 -65t169.5 -174l-190 -103q-35 65 -99 103.5t-145 38.5q-137 0 -233.5 -97.5t-96.5 -238.5q0 -114 77.5 -193.5t197.5 -79.5q79 0 151.5 36.5t116.5 98.5l168 -110q-72 -97 -183.5 -156.5t-238.5 -66.5l-43 -82h27 q72 0 121 -50t49 -133q0 -103 -76.5 -168t-206.5 -65q-145 0 -219 88l113 109q12 -26 44.5 -43t69.5 -17q50 0 78.5 22t28.5 60q0 70 -84 70h-152l115 217q-161 34 -262.5 157.5t-101.5 288.5z" />
<glyph unicode="&#xe8;" horiz-adv-x="1130" d="M152 438q0 114 44 217t118.5 176.5t176.5 116.5t214 43q197 0 326.5 -127t129.5 -317q0 -47 -18 -121h-778q9 -109 86.5 -179.5t199.5 -70.5q129 0 246 111l147 -131q-97 -93 -198.5 -133.5t-229.5 -40.5q-197 0 -330.5 132.5t-133.5 323.5zM385 586h559 q-19 93 -89.5 152t-170.5 59q-103 0 -183 -58t-116 -153zM520 1286l101 176l430 -229l-95 -162z" />
<glyph unicode="&#xe9;" horiz-adv-x="1130" d="M152 438q0 114 44 217t118.5 176.5t176.5 116.5t214 43q197 0 326.5 -127t129.5 -317q0 -47 -18 -121h-778q9 -109 86.5 -179.5t199.5 -70.5q129 0 246 111l147 -131q-97 -93 -198.5 -133.5t-229.5 -40.5q-197 0 -330.5 132.5t-133.5 323.5zM385 586h559 q-19 93 -89.5 152t-170.5 59q-103 0 -183 -58t-116 -153zM496 1241l510 229l65 -184l-512 -215z" />
<glyph unicode="&#xea;" horiz-adv-x="1130" d="M152 438q0 114 44 217t118.5 176.5t176.5 116.5t214 43q197 0 326.5 -127t129.5 -317q0 -47 -18 -121h-778q9 -109 86.5 -179.5t199.5 -70.5q129 0 246 111l147 -131q-97 -93 -198.5 -133.5t-229.5 -40.5q-197 0 -330.5 132.5t-133.5 323.5zM367 1260l383 243h69 l299 -243l-121 -142l-231 182l-313 -196zM385 586h559q-19 93 -89.5 152t-170.5 59q-103 0 -183 -58t-116 -153z" />
<glyph unicode="&#xeb;" horiz-adv-x="1130" d="M152 438q0 114 44 217t118.5 176.5t176.5 116.5t214 43q197 0 326.5 -127t129.5 -317q0 -47 -18 -121h-778q9 -109 86.5 -179.5t199.5 -70.5q129 0 246 111l147 -131q-97 -93 -198.5 -133.5t-229.5 -40.5q-197 0 -330.5 132.5t-133.5 323.5zM385 586h559 q-19 93 -89.5 152t-170.5 59q-103 0 -183 -58t-116 -153zM440 1151l41 231h232l-41 -231h-232zM874 1151l41 231h232l-41 -231h-232z" />
<glyph unicode="&#xec;" horiz-adv-x="503" d="M143 0l172 973h217l-172 -973h-217zM203 1286l102 176l428 -229l-94 -162z" />
<glyph unicode="&#xed;" horiz-adv-x="503" d="M143 0l172 973h217l-172 -973h-217zM180 1241l508 229l66 -184l-512 -215z" />
<glyph unicode="&#xee;" horiz-adv-x="503" d="M100 1260l383 243h68l299 -243l-119 -142l-233 182l-314 -196zM143 0l172 973h217l-172 -973h-217z" />
<glyph unicode="&#xef;" horiz-adv-x="503" d="M125 1151l39 231h231l-39 -231h-231zM143 0l172 973h217l-172 -973h-217zM557 1151l41 231h231l-41 -231h-231z" />
<glyph unicode="&#xf0;" horiz-adv-x="1179" d="M150 420q0 146 74 269t196.5 193t261.5 70q214 0 307 -127q-23 184 -162 297l-94 -118l-139 86l88 112q-85 29 -172 29l29 172q148 0 266 -45l102 129l140 -82l-99 -127q125 -95 186.5 -256t61.5 -365q0 -315 -155 -495t-425 -180q-195 0 -330.5 127.5t-135.5 310.5z M360 436q0 -106 79.5 -180t199.5 -74q139 0 238.5 92t99.5 222q0 107 -80.5 181.5t-200.5 74.5q-137 0 -236.5 -92.5t-99.5 -223.5z" />
<glyph unicode="&#xf1;" d="M143 0l172 973h213l-24 -137q56 79 137.5 117t173.5 38q185 0 274.5 -111t53.5 -321l-99 -559h-217l95 537q22 122 -26 188t-153 66q-102 0 -184 -68t-104 -193v7l-95 -537h-217zM399 1135q15 127 87.5 202.5t179.5 75.5q49 0 93.5 -14.5t72 -32.5t62.5 -32.5t67 -14.5 q46 0 71.5 21t32.5 71h168q-21 -131 -88 -204.5t-174 -73.5q-51 0 -96.5 15t-73.5 33t-63 33t-66 15q-42 0 -70 -24t-35 -70h-168z" />
<glyph unicode="&#xf2;" d="M158 438q0 114 45 217t121.5 176.5t181 116.5t219.5 43q198 0 334.5 -133.5t136.5 -325.5q0 -152 -76.5 -278.5t-206.5 -199t-284 -72.5q-198 0 -334.5 132.5t-136.5 323.5zM369 455q0 -114 79 -193.5t199 -79.5q139 0 238.5 97.5t99.5 236.5q0 115 -80 195t-200 80 q-138 0 -237 -98t-99 -238zM539 1286l100 176l430 -229l-94 -162z" />
<glyph unicode="&#xf3;" d="M158 438q0 114 45 217t121.5 176.5t181 116.5t219.5 43q198 0 334.5 -133.5t136.5 -325.5q0 -152 -76.5 -278.5t-206.5 -199t-284 -72.5q-198 0 -334.5 132.5t-136.5 323.5zM369 455q0 -114 79 -193.5t199 -79.5q139 0 238.5 97.5t99.5 236.5q0 115 -80 195t-200 80 q-138 0 -237 -98t-99 -238zM514 1241l510 229l66 -184l-512 -215z" />
<glyph unicode="&#xf4;" d="M158 438q0 114 45 217t121.5 176.5t181 116.5t219.5 43q198 0 334.5 -133.5t136.5 -325.5q0 -152 -76.5 -278.5t-206.5 -199t-284 -72.5q-198 0 -334.5 132.5t-136.5 323.5zM369 455q0 -114 79 -193.5t199 -79.5q139 0 238.5 97.5t99.5 236.5q0 115 -80 195t-200 80 q-138 0 -237 -98t-99 -238zM434 1260l383 243h70l299 -243l-119 -142l-233 182l-314 -196z" />
<glyph unicode="&#xf5;" d="M158 438q0 114 45 217t121.5 176.5t181 116.5t219.5 43q198 0 334.5 -133.5t136.5 -325.5q0 -152 -76.5 -278.5t-206.5 -199t-284 -72.5q-198 0 -334.5 132.5t-136.5 323.5zM369 455q0 -114 79 -193.5t199 -79.5q139 0 238.5 97.5t99.5 236.5q0 115 -80 195t-200 80 q-138 0 -237 -98t-99 -238zM395 1135q15 127 86.5 202.5t177.5 75.5q50 0 94.5 -14.5t72.5 -32.5t63 -32.5t67 -14.5q46 0 72 21.5t33 70.5h168q-21 -131 -88.5 -204.5t-173.5 -73.5q-51 0 -96.5 15t-73.5 33t-63 33t-66 15q-42 0 -70 -24t-35 -70h-168z" />
<glyph unicode="&#xf6;" d="M158 438q0 114 45 217t121.5 176.5t181 116.5t219.5 43q198 0 334.5 -133.5t136.5 -325.5q0 -152 -76.5 -278.5t-206.5 -199t-284 -72.5q-198 0 -334.5 132.5t-136.5 323.5zM369 455q0 -114 79 -193.5t199 -79.5q139 0 238.5 97.5t99.5 236.5q0 115 -80 195t-200 80 q-138 0 -237 -98t-99 -238zM459 1151l41 231h231l-41 -231h-231zM893 1151l41 231h231l-41 -231h-231z" />
<glyph unicode="&#xf7;" horiz-adv-x="1261" d="M231 526l37 201h983l-34 -201h-986zM530 250q0 61 44 105t108 44q57 0 93 -35t36 -90q0 -60 -44.5 -104.5t-109.5 -44.5q-56 0 -91.5 35t-35.5 90zM657 977q0 61 44.5 105t109.5 44q56 0 91.5 -34t35.5 -88q0 -61 -44 -105.5t-108 -44.5q-57 0 -93 34.5t-36 88.5z" />
<glyph unicode="&#xf8;" horiz-adv-x="1212" d="M68 68l170 143q-62 108 -62 227q0 153 76 280t206.5 200t284.5 73q166 0 295 -98l172 145l109 -133l-166 -141q61 -106 61 -232q0 -152 -76.5 -278.5t-206.5 -199t-284 -72.5q-170 0 -297 100l-174 -148zM387 455q0 -52 19 -101l466 398q-67 39 -149 39q-138 0 -237 -98 t-99 -238zM516 223q65 -41 150 -41q139 0 238.5 97.5t99.5 236.5q0 56 -21 105z" />
<glyph unicode="&#xf9;" horiz-adv-x="1171" d="M199 414l98 559h217l-94 -537q-22 -122 25 -188t151 -66t186.5 67.5t104.5 192.5v-6l94 537h217l-172 -973h-213l27 141q-57 -81 -140 -120t-176 -39q-184 0 -273 111t-52 321zM537 1286l102 176l428 -229l-94 -162z" />
<glyph unicode="&#xfa;" horiz-adv-x="1171" d="M199 414l98 559h217l-94 -537q-22 -122 25 -188t151 -66t186.5 67.5t104.5 192.5v-6l94 537h217l-172 -973h-213l27 141q-57 -81 -140 -120t-176 -39q-184 0 -273 111t-52 321zM514 1241l508 229l65 -184l-509 -215z" />
<glyph unicode="&#xfb;" horiz-adv-x="1171" d="M199 414l98 559h217l-94 -537q-22 -122 25 -188t151 -66t186.5 67.5t104.5 192.5v-6l94 537h217l-172 -973h-213l27 141q-57 -81 -140 -120t-176 -39q-184 0 -273 111t-52 321zM434 1260l383 243h68l299 -243l-119 -142l-231 182l-316 -196z" />
<glyph unicode="&#xfc;" horiz-adv-x="1171" d="M199 414l98 559h217l-94 -537q-22 -122 25 -188t151 -66t186.5 67.5t104.5 192.5v-6l94 537h217l-172 -973h-213l27 141q-57 -81 -140 -120t-176 -39q-184 0 -273 111t-52 321zM459 1151l41 231h231l-41 -231h-231zM891 1151l41 231h231l-41 -231h-231z" />
<glyph unicode="&#xfd;" horiz-adv-x="1095" d="M156 -451l284 455l-252 969h236l172 -709l393 709h256l-862 -1424h-227zM471 1241l510 229l66 -184l-512 -215z" />
<glyph unicode="&#xfe;" horiz-adv-x="1245" d="M63 -451l324 1833h217l-94 -530q139 139 321 139q186 0 309.5 -132.5t123.5 -326.5q0 -151 -74 -278t-198.5 -199.5t-270.5 -72.5q-108 0 -193.5 48t-138.5 130l-108 -611h-218zM451 455q0 -114 76 -193.5t190 -79.5q139 0 237.5 98t98.5 238q0 114 -79.5 193.5 t-199.5 79.5q-129 0 -226 -98.5t-97 -237.5z" />
<glyph unicode="&#xff;" horiz-adv-x="1095" d="M156 -451l284 455l-252 969h236l172 -709l393 709h256l-862 -1424h-227zM416 1151l41 231h231l-41 -231h-231zM850 1151l41 231h231l-41 -231h-231z" />
<glyph unicode="&#x152;" horiz-adv-x="2140" d="M195 580q0 208 104.5 385.5t284 281t389.5 103.5q145 0 265.5 -53t203.5 -150l33 182h798l-37 -209h-579l-62 -342h527l-35 -207h-526l-64 -360h586l-37 -211h-805l23 133q-203 -151 -463 -151q-173 0 -311.5 76.5t-216.5 213t-78 308.5zM422 600q0 -175 110.5 -292.5 t290.5 -117.5q140 0 261.5 70t194.5 194t73 273q0 176 -110 295t-290 119q-144 0 -266 -73t-193 -197.5t-71 -270.5z" />
<glyph unicode="&#x153;" horiz-adv-x="1964" d="M158 438q0 114 45 217t121.5 176.5t181 116.5t219.5 43q121 0 223 -52.5t166 -143.5q78 92 188 144t236 52q197 0 326 -127t129 -317q0 -51 -17 -121h-778q9 -109 86.5 -179.5t200.5 -70.5q130 0 244 111l147 -131q-96 -93 -197 -133.5t-229 -40.5q-121 0 -221.5 52.5 t-163.5 143.5q-79 -92 -193 -144t-243 -52q-198 0 -334.5 132.5t-136.5 323.5zM369 455q0 -114 79 -193.5t199 -79.5q139 0 238.5 97.5t99.5 236.5q0 115 -80 195t-200 80q-138 0 -237 -98t-99 -238zM1219 586h557q-18 93 -87.5 152t-170.5 59q-103 0 -183 -58t-116 -153z " />
<glyph unicode="&#x178;" horiz-adv-x="1302" d="M260 1329h250l266 -594l471 594h260l-649 -794l-94 -535h-223l94 535zM559 1495l45 252h256l-45 -252h-256zM1010 1495l45 252h256l-45 -252h-256z" />
<glyph unicode="&#x2c6;" horiz-adv-x="1228" d="M344 1260l385 243h68l299 -243l-119 -142l-234 182l-313 -196z" />
<glyph unicode="&#x2dc;" horiz-adv-x="1228" d="M322 1135q17 128 88 203t178 75q50 0 94.5 -14.5t72.5 -32.5t63 -32.5t67 -14.5q46 0 70.5 21t31.5 71h170q-21 -131 -89 -204.5t-175 -73.5q-63 0 -117 24t-98.5 48t-83.5 24q-87 0 -102 -94h-170z" />
<glyph unicode="&#x2000;" horiz-adv-x="956" />
<glyph unicode="&#x2001;" horiz-adv-x="1913" />
<glyph unicode="&#x2002;" horiz-adv-x="956" />
<glyph unicode="&#x2003;" horiz-adv-x="1913" />
<glyph unicode="&#x2004;" horiz-adv-x="637" />
<glyph unicode="&#x2005;" horiz-adv-x="478" />
<glyph unicode="&#x2006;" horiz-adv-x="318" />
<glyph unicode="&#x2007;" horiz-adv-x="318" />
<glyph unicode="&#x2008;" horiz-adv-x="239" />
<glyph unicode="&#x2009;" horiz-adv-x="382" />
<glyph unicode="&#x200a;" horiz-adv-x="106" />
<glyph unicode="&#x2010;" horiz-adv-x="841" d="M201 469l35 199h606l-35 -199h-606z" />
<glyph unicode="&#x2011;" horiz-adv-x="841" d="M201 469l35 199h606l-35 -199h-606z" />
<glyph unicode="&#x2012;" horiz-adv-x="841" d="M201 469l35 199h606l-35 -199h-606z" />
<glyph unicode="&#x2013;" horiz-adv-x="1183" d="M201 469l35 199h948l-35 -199h-948z" />
<glyph unicode="&#x2014;" horiz-adv-x="1660" d="M201 469l35 199h1425l-35 -199h-1425z" />
<glyph unicode="&#x2018;" horiz-adv-x="434" d="M248 977l198 391h154l-135 -391h-217z" />
<glyph unicode="&#x2019;" horiz-adv-x="421" d="M260 956l135 394h217l-198 -394h-154z" />
<glyph unicode="&#x201a;" horiz-adv-x="444" d="M41 -158l135 391h215l-198 -391h-152z" />
<glyph unicode="&#x201c;" horiz-adv-x="759" d="M248 956l198 394h154l-135 -394h-217zM571 956l199 394h152l-136 -394h-215z" />
<glyph unicode="&#x201d;" horiz-adv-x="743" d="M260 956l135 394h217l-198 -394h-154zM584 956l133 394h217l-199 -394h-151z" />
<glyph unicode="&#x201e;" horiz-adv-x="765" d="M41 -158l135 391h215l-198 -391h-152zM362 -158l136 391h217l-199 -391h-154z" />
<glyph unicode="&#x2022;" horiz-adv-x="790" d="M236 399l79 455h461l-80 -455h-460z" />
<glyph unicode="&#x2026;" horiz-adv-x="1337" d="M117 0l43 242h246l-41 -242h-248zM545 0l43 242h248l-43 -242h-248zM975 0l41 242h248l-41 -242h-248z" />
<glyph unicode="&#x202f;" horiz-adv-x="382" />
<glyph unicode="&#x2039;" horiz-adv-x="675" d="M143 475l357 356h231l-360 -364l219 -346h-219z" />
<glyph unicode="&#x203a;" horiz-adv-x="675" d="M113 121l360 362l-219 348h219l227 -356l-356 -354h-231z" />
<glyph unicode="&#x205f;" horiz-adv-x="478" />
<glyph unicode="&#x20ac;" horiz-adv-x="1277" d="M131 432l80 162h137q5 53 19 125h-150l80 162h117q88 217 264.5 343t406.5 126q107 0 188.5 -21.5t158.5 -73.5l-129 -184q-102 70 -246 70q-129 0 -235 -69t-173 -191h516l-80 -162h-497q-13 -66 -19 -125h463l-82 -162h-372q24 -115 104 -178.5t209 -63.5q146 0 270 70 l62 -186q-91 -52 -176.5 -72t-188.5 -20q-216 0 -352.5 123t-157.5 327h-217z" />
<glyph unicode="&#x2122;" horiz-adv-x="1581" d="M268 1184l27 145h573l-26 -145h-203l-86 -486h-164l86 486h-207zM860 698l113 631h217l51 -455l213 455h223l-108 -631h-152l74 422h-6l-197 -422h-149l-47 422h-9l-73 -422h-150z" />
<glyph unicode="&#x25fc;" horiz-adv-x="972" d="M0 0v973h973v-973h-973z" />
</font>
</defs>
</svg>
