<?xml version="1.0" standalone="no"?>
<!DOCTYPE svg PUBLIC "-//W3C//DTD SVG 1.1//EN" "http://www.w3.org/Graphics/SVG/1.1/DTD/svg11.dtd" >
<svg xmlns="http://www.w3.org/2000/svg" xmlns:xlink="http://www.w3.org/1999/xlink" version="1.1">
<metadata></metadata>
<defs>
<font id="f37_moonblack" horiz-adv-x="1247" >
<font-face units-per-em="2048" ascent="1638" descent="-410" />
<missing-glyph horiz-adv-x="368" />
<glyph unicode="&#xfb01;" horiz-adv-x="1427" d="M61 645v328h117v6q0 424 459 424q99 0 176 -12v-308q-27 2 -61 2q-148 0 -148 -106v-6h727v-973h-424v645h-305v-645h-424v645h-117zM909 1106v379h424v-379h-424z" />
<glyph unicode="&#xfb02;" horiz-adv-x="1427" d="M61 645v328h117v6q0 424 459 424q99 0 176 -12v-308q-27 2 -61 2q-148 0 -148 -106v-6h303v409h424v-1382h-424v645h-305v-645h-424v645h-117z" />
<glyph horiz-adv-x="0" />
<glyph horiz-adv-x="682" />
<glyph unicode=" "  horiz-adv-x="368" />
<glyph unicode="&#x09;" horiz-adv-x="368" />
<glyph unicode="&#xa0;" horiz-adv-x="368" />
<glyph unicode="!" horiz-adv-x="571" d="M92 0v344h385v-344h-385zM92 956v373h389v-373l-96 -479h-197z" />
<glyph unicode="&#x22;" horiz-adv-x="927" d="M61 1350h363l-43 -510h-277zM504 1350h362l-43 -510h-276z" />
<glyph unicode="#" horiz-adv-x="1196" d="M63 319v273h175l32 160h-127v272h183l43 209h270l-43 -209h149l43 209h271l-43 -209h114v-272h-169l-33 -160h123v-273h-179l-43 -208h-270l43 208h-149l-43 -208h-271l43 208h-119zM508 592h149l33 160h-149z" />
<glyph unicode="$" horiz-adv-x="1273" d="M39 233l270 263q66 -84 162 -131.5t199 -47.5q135 0 135 78q0 32 -29.5 55.5t-77.5 37.5t-109.5 31.5t-125.5 35t-125.5 51t-109.5 77t-77.5 116t-29.5 164.5q0 132 95.5 235t272.5 137v228h330v-228q214 -37 383 -196l-250 -252q-141 135 -301 135q-121 0 -121 -64 q0 -26 23.5 -45.5t63 -34t91 -28.5t108 -31.5t113 -39.5t108 -57t91 -79t63 -110t23.5 -146q0 -140 -104 -247.5t-291 -143.5v-227h-330v225q-264 41 -450 239z" />
<glyph unicode="%" horiz-adv-x="1880" d="M43 952q0 168 105.5 277.5t267.5 109.5t267 -109.5t105 -277.5t-105 -277.5t-267 -109.5t-267.5 109.5t-105.5 277.5zM291 952q0 -65 35 -105.5t90 -39.5q56 2 90.5 41.5t34.5 103.5q0 66 -34.5 106t-90.5 40t-90.5 -40t-34.5 -106zM512 0l543 1329h311l-543 -1329h-311z M1092 379q0 168 105 277.5t267 109.5t267.5 -109.5t105.5 -277.5t-105.5 -277.5t-267.5 -109.5t-267 109.5t-105 277.5zM1339 379q0 -65 35 -106t90 -40q56 2 90.5 42t34.5 104q0 66 -34.5 105.5t-90.5 39.5t-90.5 -39.5t-34.5 -105.5z" />
<glyph unicode="&#x26;" horiz-adv-x="1323" d="M66 356q0 119 49 199.5t129 114.5q-152 88 -152 291q0 183 155.5 286t436.5 103q60 0 129 -7v-309q-54 4 -151 4q-187 0 -187 -114q0 -101 150 -101h133v101h358v-101h141v-284h-141v-232h141v-307h-677q-243 0 -378.5 93t-135.5 263zM449 422q0 -115 182 -115h127v232 h-127q-182 0 -182 -117z" />
<glyph unicode="'" horiz-adv-x="485" d="M61 1350h363l-43 -510h-277z" />
<glyph unicode="(" horiz-adv-x="770" d="M51 500q0 575 504 882l211 -256q-175 -149 -241 -291.5t-66 -334.5t66 -335t241 -292l-211 -256q-504 307 -504 883z" />
<glyph unicode=")" horiz-adv-x="770" d="M4 -127q175 149 241 292t66 335t-66 334.5t-241 291.5l211 256q504 -307 504 -882q0 -576 -504 -883z" />
<glyph unicode="*" horiz-adv-x="827" d="M47 965l178 45l-178 45l143 250l129 -134l-49 179h287l-49 -179l129 134l143 -250l-178 -45l178 -45l-143 -250l-129 133l49 -178h-287l49 178l-129 -133z" />
<glyph unicode="+" horiz-adv-x="1261" d="M102 477v324h367v366h324v-366h366v-324h-366v-366h-324v366h-367z" />
<glyph unicode="," horiz-adv-x="532" d="M51 -166l53 545h373l-145 -545h-281z" />
<glyph unicode="-" horiz-adv-x="880" d="M90 420v319h701v-319h-701z" />
<glyph unicode="." horiz-adv-x="575" d="M86 0v379h403v-379h-403z" />
<glyph unicode="/" horiz-adv-x="835" d="M33 0l436 1329h334l-438 -1329h-332z" />
<glyph unicode="0" horiz-adv-x="1306" d="M86 438v434q0 220 153 349t414 129t414.5 -129t153.5 -349v-434q0 -204 -154.5 -330t-413.5 -126t-413 126t-154 330zM516 479q0 -59 38 -95t99 -36q62 0 100 36.5t38 94.5v352q0 73 -37.5 112.5t-100.5 39.5t-100 -39.5t-37 -112.5v-352z" />
<glyph unicode="1" horiz-adv-x="815" d="M47 965v364h649v-1329h-430v965h-219z" />
<glyph unicode="2" horiz-adv-x="1167" d="M74 0v330l473 368q64 51 98.5 97.5t34.5 103.5q0 51 -26.5 79t-75.5 28q-47 0 -77.5 -32.5t-31.5 -86.5h-393q2 218 136.5 340.5t373.5 122.5q222 0 354.5 -119t132.5 -316q0 -129 -53.5 -223.5t-188.5 -204.5l-178 -145h428v-342h-1007z" />
<glyph unicode="3" horiz-adv-x="1159" d="M25 276l307 170q39 -77 86.5 -117t128.5 -40q75 0 119.5 37.5t44.5 103.5q0 70 -50 111t-135 41h-123l-65 161l227 269h-454v317h901v-266l-240 -277q152 -35 237 -132.5t85 -235.5q0 -198 -145 -317t-402 -119q-186 0 -322.5 76.5t-199.5 217.5z" />
<glyph unicode="4" horiz-adv-x="1267" d="M45 254v252l313 823h412l-305 -747h225v254h383v-254h152v-328h-152v-254h-383v254h-645z" />
<glyph unicode="5" horiz-adv-x="1193" d="M49 285l318 176q39 -79 85.5 -119.5t127.5 -40.5q76 0 116.5 36.5t40.5 96.5q0 68 -47 108t-131 40h-442l43 747h864v-330h-514l-10 -141h145q221 0 354.5 -112.5t133.5 -321.5q0 -198 -152 -320t-401 -122q-186 0 -326.5 77t-204.5 226z" />
<glyph unicode="6" horiz-adv-x="1193" d="M61 471q0 185 146 420l272 438h424l-289 -444q27 8 60 8q212 0 349.5 -124.5t137.5 -309.5q0 -146 -73.5 -255.5t-198.5 -165.5t-281 -56q-114 0 -213.5 33.5t-173.5 95t-117 155t-43 205.5zM457 459q0 -67 44 -112.5t107 -45.5q66 0 112 45.5t46 112.5q0 64 -47 108.5 t-111 44.5t-107.5 -44t-43.5 -109z" />
<glyph unicode="7" horiz-adv-x="1128" d="M45 985v344h1040v-287l-526 -1042h-424l510 985h-600z" />
<glyph unicode="8" horiz-adv-x="1249" d="M63 412q0 121 60 203.5t166 125.5q-73 39 -111.5 105t-38.5 143q0 159 132 260t354 101t353.5 -101t131.5 -260q0 -78 -38 -143.5t-111 -104.5q225 -92 225 -329q0 -193 -157.5 -311.5t-403.5 -118.5q-161 0 -288.5 53t-200.5 151t-73 226zM461 434q0 -64 46.5 -105.5 t117.5 -41.5t117 41.5t46 105.5q0 63 -46 106.5t-117 43.5t-117.5 -43.5t-46.5 -106.5zM512 961q0 -43 34 -76t79 -33t78.5 33t33.5 76q0 45 -32.5 74.5t-79.5 29.5t-80 -29.5t-33 -74.5z" />
<glyph unicode="9" horiz-adv-x="1193" d="M33 870q0 146 73.5 255.5t198.5 166t281 56.5q153 0 276 -57.5t197 -170.5t74 -262q0 -185 -146 -420l-272 -438h-424l289 444q-27 -8 -60 -8q-212 0 -349.5 124.5t-137.5 309.5zM428 870q0 -64 47 -108.5t111 -44.5t107.5 44t43.5 109q0 67 -44 112.5t-107 45.5 q-66 0 -112 -45.5t-46 -112.5z" />
<glyph unicode=":" horiz-adv-x="587" d="M92 0v379h404v-379h-404zM92 573v379h404v-379h-404z" />
<glyph unicode=";" horiz-adv-x="587" d="M66 -166l53 545h373l-146 -545h-280zM104 573v379h404v-379h-404z" />
<glyph unicode="&#x3c;" horiz-adv-x="1261" d="M219 649l588 606l217 -213l-391 -393l391 -393l-217 -213z" />
<glyph unicode="=" horiz-adv-x="1261" d="M102 242v323h1057v-323h-1057zM102 733v324h1057v-324h-1057z" />
<glyph unicode="&#x3e;" horiz-adv-x="1261" d="M238 256l391 393l-391 393l217 213l587 -606l-587 -606z" />
<glyph unicode="?" horiz-adv-x="1077" d="M41 877q0 102 30 186.5t89.5 149.5t157 101t223.5 36q123 0 219 -32.5t152 -87t84 -120t28 -137.5q0 -67 -23.5 -123.5t-58.5 -92t-76.5 -67.5t-76.5 -52.5t-58.5 -42.5t-23.5 -42v-76h-379v76q0 50 23.5 93t58.5 71.5t76.5 57t76.5 50.5t58.5 50.5t23.5 58.5 q0 86 -106 86q-65 0 -98 -38t-33 -105h-367zM322 0v344h385v-344h-385z" />
<glyph unicode="@" horiz-adv-x="2023" d="M47 406q0 191 73.5 357.5t201.5 284t309 185t389 67.5q209 0 387.5 -62t300.5 -169.5t191 -256t69 -318.5q0 -278 -122 -427t-326 -149q-70 0 -132 15t-126 60t-103 118q-36 -63 -104.5 -98.5t-157.5 -35.5q-175 0 -290 122t-115 298q0 175 115 296.5t290 121.5 q180 0 252 -115v97h344v-461q0 -103 74 -103q82 0 82 246q0 260 -162.5 396.5t-468.5 136.5q-297 0 -474 -164t-177 -442q0 -282 167 -439t457 -157q166 0 299 55l113 -277q-164 -73 -414 -73q-271 0 -485.5 111t-335.5 314.5t-121 465.5zM868 397q0 -62 36.5 -99.5 t96.5 -37.5q59 0 95.5 38t36.5 99t-36.5 98t-95.5 37q-60 0 -96.5 -37t-36.5 -98z" />
<glyph unicode="A" horiz-adv-x="1458" d="M0 0l483 1329h494l481 -1329h-430l-70 221h-460l-68 -221h-430zM600 557h256l-127 422z" />
<glyph unicode="B" horiz-adv-x="1271" d="M115 0v1329h626q192 0 309 -99.5t117 -264.5q0 -92 -38.5 -161t-131.5 -116q116 -41 168 -120t52 -197q0 -168 -121.5 -269.5t-313.5 -101.5h-667zM475 303h227q66 0 101 32.5t35 86.5t-35 85.5t-101 31.5h-227v-236zM475 807h197q62 0 94.5 30t32.5 78t-32.5 79.5 t-94.5 31.5h-197v-219z" />
<glyph unicode="C" horiz-adv-x="1376" d="M57 666q0 141 50.5 266t141 217.5t225 146.5t294.5 54q389 0 586 -320l-381 -194q-27 55 -84.5 90t-128.5 35q-121 0 -196 -86t-75 -209t76.5 -209t204.5 -86q71 0 128.5 35t84.5 90l381 -195q-196 -319 -586 -319q-163 0 -300 54t-228.5 146.5t-142 217.5t-50.5 266z " />
<glyph unicode="D" horiz-adv-x="1474" d="M115 0v1329h635q141 0 262.5 -45.5t211 -129t140.5 -210t51 -280.5q0 -188 -85.5 -340t-236 -238t-335.5 -86h-643zM545 369h162q128 0 202 78.5t74 218.5q0 144 -73 219.5t-203 75.5h-162v-592z" />
<glyph unicode="E" horiz-adv-x="1157" d="M115 0v1329h956v-317h-547v-191h502v-307h-502v-197h547v-317h-956z" />
<glyph unicode="F" horiz-adv-x="1130" d="M115 0v1329h956v-328h-526v-235h481v-328h-481v-438h-430z" />
<glyph unicode="G" horiz-adv-x="1495" d="M57 666q0 141 50.5 265.5t143 217.5t231.5 147t306 54q339 0 523 -199l-289 -281q-94 91 -240 91q-141 0 -217 -84.5t-76 -210.5q0 -125 77.5 -210t217.5 -85q97 0 159 25.5t91 92.5h-223v285h633q4 -43 4 -131q0 -114 -23 -209t-61.5 -161.5t-93 -119t-113.5 -84 t-127 -52t-128.5 -28t-123.5 -7.5q-163 0 -300 54t-228.5 146.5t-142 217.5t-50.5 266z" />
<glyph unicode="H" horiz-adv-x="1447" d="M115 0v1329h430v-469h358v469h430v-1329h-430v487h-358v-487h-430z" />
<glyph unicode="I" horiz-adv-x="659" d="M115 0v1329h430v-1329h-430z" />
<glyph unicode="J" horiz-adv-x="1157" d="M-10 184l237 303q53 -66 104 -91t115 -25q84 0 132.5 54t48.5 165v739h430v-721q0 -311 -146.5 -468.5t-437.5 -157.5q-298 0 -483 202z" />
<glyph unicode="K" horiz-adv-x="1370" d="M115 0v1329h430v-475l293 475h503l-428 -594l480 -735h-484l-262 403l-102 -120v-283h-430z" />
<glyph unicode="L" horiz-adv-x="1105" d="M115 0v1329h430v-950h526v-379h-956z" />
<glyph unicode="M" horiz-adv-x="1781" d="M115 0v1329h510l266 -831l266 831h510v-1329h-385v698l-207 -698h-370l-205 696v-696h-385z" />
<glyph unicode="N" horiz-adv-x="1523" d="M115 0v1329h448l453 -706v706h393v-1329h-395l-506 784v-784h-393z" />
<glyph unicode="O" horiz-adv-x="1556" d="M57 664q0 142 50.5 267t142 218t228.5 147t300 54q161 0 297 -53t228.5 -145t144 -217.5t51.5 -268.5t-52 -269t-144.5 -217.5t-228.5 -144.5t-296 -53q-159 0 -294.5 52.5t-228.5 143.5t-145.5 216.5t-52.5 269.5zM489 662q0 -126 78.5 -208.5t210.5 -82.5t210.5 83.5 t78.5 209.5q0 127 -78 212t-211 85t-211 -86t-78 -213z" />
<glyph unicode="P" horiz-adv-x="1294" d="M115 0v1329h575q266 0 416.5 -129t150.5 -360q0 -223 -150 -364.5t-409 -141.5h-153v-334h-430zM545 666h123q86 0 133 43t47 122q0 82 -46.5 124t-133.5 42h-123v-331z" />
<glyph unicode="Q" horiz-adv-x="1556" d="M57 664q0 142 50.5 267t142 218t228.5 147t300 54q161 0 297 -53t228.5 -145t144 -217.5t51.5 -268.5q0 -266 -162 -451l146 -152l-314 -280l-208 217q-85 -18 -183 -18q-159 0 -294.5 52.5t-228.5 143.5t-145.5 216.5t-52.5 269.5zM489 662q0 -126 78.5 -208.5 t210.5 -82.5t210.5 83.5t78.5 209.5q0 127 -78 212t-211 85t-211 -86t-78 -213z" />
<glyph unicode="R" horiz-adv-x="1323" d="M115 0v1329h559q271 0 424 -123t153 -344q0 -105 -47.5 -205t-156.5 -165l231 -492h-459l-166 410h-106v-410h-432zM547 709h112q183 0 183 149q0 150 -183 150h-112v-299z" />
<glyph unicode="S" horiz-adv-x="1257" d="M20 233l271 263q66 -84 161.5 -131.5t198.5 -47.5q135 0 135 78q0 32 -29.5 55.5t-77.5 37.5t-109.5 31.5t-125.5 35t-125.5 51t-109.5 77t-77.5 116t-29.5 164.5q0 77 34 145.5t97.5 123t166 86.5t229.5 32q176 0 309 -52t246 -159l-250 -252q-141 135 -301 135 q-121 0 -121 -64q0 -26 23.5 -45.5t63 -34t91 -28.5t108 -31.5t113 -39.5t108 -57t91 -79t63 -110t23.5 -146q0 -81 -37.5 -154t-106.5 -129t-176 -89t-237 -33q-191 0 -341.5 58.5t-277.5 192.5z" />
<glyph unicode="T" horiz-adv-x="1318" d="M35 950v379h1249v-379h-410v-950h-430v950h-409z" />
<glyph unicode="U" horiz-adv-x="1507" d="M98 629v700h430v-674q0 -150 55 -217t171 -67t170.5 67t54.5 217v674h430v-700q0 -316 -174 -481.5t-481 -165.5t-481.5 165.5t-174.5 481.5z" />
<glyph unicode="V" horiz-adv-x="1464" d="M2 1329h471l258 -889l258 889h471l-461 -1329h-534z" />
<glyph unicode="W" horiz-adv-x="2189" d="M4 1329h471l176 -889l217 889h451l217 -889l176 889h471l-399 -1329h-494l-194 735l-197 -735h-493z" />
<glyph unicode="X" horiz-adv-x="1355" d="M-10 0l444 690l-424 639h479l193 -330l184 330h480l-426 -661l446 -668h-479l-215 356l-203 -356h-479z" />
<glyph unicode="Y" horiz-adv-x="1452" d="M-6 1329h475l260 -467l258 467h465l-510 -829v-500h-430v502z" />
<glyph unicode="Z" horiz-adv-x="1245" d="M80 0v319l549 654h-547v356h1083v-319l-547 -654h547v-356h-1085z" />
<glyph unicode="[" horiz-adv-x="763" d="M111 -352v1681h600v-323h-228v-1035h228v-323h-600z" />
<glyph unicode="\" horiz-adv-x="835" d="M33 1329h334l436 -1329h-332z" />
<glyph unicode="]" horiz-adv-x="763" d="M53 -29h228v1035h-228v323h600v-1681h-600v323z" />
<glyph unicode="^" horiz-adv-x="1261" d="M88 547l350 782h385l351 -782h-369l-176 469l-172 -469h-369z" />
<glyph unicode="_" horiz-adv-x="1249" d="M59 -53h1131v-320h-1131v320z" />
<glyph unicode="`" horiz-adv-x="1228" d="M125 1225l78 307l577 -154l-78 -291z" />
<glyph unicode="a" d="M51 487q0 212 127 358t318 146q103 0 170 -33t108 -104v119h377v-973h-377v125q-77 -143 -278 -143q-191 0 -318 146.5t-127 358.5zM465 487q0 -73 40 -119t105 -46t105.5 46t40.5 119t-40.5 118.5t-105.5 45.5t-105 -45.5t-40 -118.5z" />
<glyph unicode="b" d="M96 0v1382h377v-508q87 117 279 117q191 0 317.5 -146t126.5 -358t-126.5 -358.5t-317.5 -146.5q-202 0 -279 114v-96h-377zM492 487q0 -73 40 -119t105 -46t105 46t40 119t-40 118.5t-105 45.5t-105 -45.5t-40 -118.5z" />
<glyph unicode="c" horiz-adv-x="1034" d="M49 487q0 142 72 258.5t194.5 181t268.5 64.5q277 0 428 -198l-240 -234q-60 92 -158 92q-71 0 -111 -46t-40 -118t40 -118.5t111 -46.5q98 0 158 92l240 -234q-151 -198 -428 -198q-146 0 -268.5 64.5t-194.5 181t-72 259.5z" />
<glyph unicode="d" d="M51 487q0 212 127 358t318 146t278 -117v508h377v-1382h-377v96q-76 -114 -278 -114q-191 0 -318 146.5t-127 358.5zM465 487q0 -73 40 -119t105 -46t105.5 46t40.5 119t-40.5 118.5t-105.5 45.5t-105 -45.5t-40 -118.5z" />
<glyph unicode="e" horiz-adv-x="1130" d="M49 487q0 215 143 359.5t373 144.5q234 0 375 -138.5t141 -365.5q0 -40 -4 -94h-641q36 -123 191 -123q131 0 207 76l204 -188q-156 -176 -432 -176q-258 0 -407.5 143t-149.5 362zM434 588h291q-3 69 -46.5 107t-100.5 38t-99 -38t-45 -107z" />
<glyph unicode="f" horiz-adv-x="843" d="M61 645v328h117v6q0 424 459 424q99 0 176 -12v-308q-27 2 -61 2q-148 0 -148 -106v-6h209v-328h-211v-645h-424v645h-117z" />
<glyph unicode="g" d="M53 487q0 212 127 358t318 146q103 0 170 -33t108 -104v119h377v-916q0 -246 -166 -387t-457 -141q-250 0 -434 113l135 297q142 -82 293 -82q252 0 252 200v68q-77 -131 -278 -131q-191 0 -318 143.5t-127 349.5zM467 487q0 -73 40 -119t105 -46t105.5 46t40.5 119 t-40.5 118.5t-105.5 45.5t-105 -45.5t-40 -118.5z" />
<glyph unicode="h" horiz-adv-x="1218" d="M96 0v1382h377v-526q85 135 281 135q173 0 274.5 -102.5t101.5 -272.5v-616h-423v502q0 50 -24.5 76t-66.5 26q-43 0 -69.5 -29t-26.5 -73v-502h-424z" />
<glyph unicode="i" horiz-adv-x="616" d="M96 0v973h424v-973h-424zM98 1106v379h424v-379h-424z" />
<glyph unicode="j" horiz-adv-x="616" d="M-90 -133q29 -4 59 -4q61 0 94 33t33 112v965h424v-957q0 -257 -112 -372t-347 -115q-87 0 -151 10v328zM96 1106v379h424v-379h-424z" />
<glyph unicode="k" horiz-adv-x="1191" d="M96 0v1382h424v-694l217 285h449l-350 -430l391 -543h-424l-197 260l-86 -108v-152h-424z" />
<glyph unicode="l" horiz-adv-x="616" d="M96 0v1382h424v-1382h-424z" />
<glyph unicode="m" horiz-adv-x="1804" d="M96 0v973h377v-115q82 133 272 133q106 0 187 -40t127 -113q84 153 284 153q173 0 273 -102.5t100 -272.5v-616h-424v502q0 50 -23.5 76t-62.5 26q-41 0 -64.5 -29t-23.5 -73v-502h-424v502q0 50 -23.5 76t-62.5 26q-41 0 -64.5 -29t-23.5 -73v-502h-424z" />
<glyph unicode="n" horiz-adv-x="1218" d="M96 0v973h377v-117q85 135 281 135q173 0 274.5 -102.5t101.5 -272.5v-616h-423v502q0 50 -24.5 76t-66.5 26q-43 0 -69.5 -29t-26.5 -73v-502h-424z" />
<glyph unicode="o" horiz-adv-x="1216" d="M49 487q0 105 37.5 196.5t106.5 160t176 108t239 39.5t239 -39.5t176 -108t106.5 -160t37.5 -196.5t-37.5 -196.5t-106.5 -160.5t-176 -108.5t-239 -39.5t-239 39.5t-176 108.5t-106.5 160.5t-37.5 196.5zM463 487q0 -73 40 -119t105 -46t105.5 46t40.5 119t-40.5 118.5 t-105.5 45.5t-105 -45.5t-40 -118.5z" />
<glyph unicode="p" d="M96 -451v1422h377v-97q77 115 279 115q126 0 228.5 -68t159 -184t56.5 -254q0 -212 -126.5 -357.5t-317.5 -145.5q-193 0 -279 116v-547h-377zM492 483q0 -73 40 -118.5t105 -45.5t105 45.5t40 118.5q0 74 -40.5 120t-104.5 46t-104.5 -46t-40.5 -120z" />
<glyph unicode="q" d="M51 483q0 138 57 254t159.5 184t228.5 68q201 0 278 -115v97h377v-1422h-377v547q-86 -116 -278 -116q-126 0 -228.5 67.5t-159.5 182.5t-57 253zM465 483q0 -73 40 -118.5t105 -45.5t105.5 45.5t40.5 118.5t-40.5 119.5t-105.5 46.5q-64 0 -104.5 -46t-40.5 -120z" />
<glyph unicode="r" horiz-adv-x="823" d="M96 0v973h377v-172q33 91 117 140.5t196 49.5v-409q-32 4 -61 4q-103 0 -154 -65.5t-51 -166.5v-354h-424z" />
<glyph unicode="s" horiz-adv-x="1005" d="M33 201l291 147q20 -46 67 -71t107 -25q71 0 71 37q0 19 -21 32.5t-56 20.5t-79 16.5t-90.5 20.5t-90.5 33t-79 51.5t-56 80t-21 115.5q0 154 115.5 243t316.5 89q146 0 248 -48.5t170 -149.5l-289 -148q-41 76 -113 76q-63 0 -63 -37q0 -18 21 -31t56 -20.5t79 -18 t90.5 -21.5t90.5 -34.5t79 -54.5t56 -83t21 -118q0 -151 -119 -236t-327 -85q-325 0 -475 219z" />
<glyph unicode="t" horiz-adv-x="851" d="M39 645v328h168v248h424v-248h192v-328h-192v-645h-424v645h-168z" />
<glyph unicode="u" horiz-adv-x="1206" d="M88 354v619h424v-504q0 -102 80 -102q43 0 68.5 29t25.5 73v504h424v-973h-375v115q-85 -135 -280 -135q-169 0 -268 102t-99 272z" />
<glyph unicode="v" horiz-adv-x="1181" d="M8 973h441l143 -563l141 563h441l-355 -973h-457z" />
<glyph unicode="w" horiz-adv-x="1708" d="M10 973h408l100 -559l96 559h480l98 -559l98 559h408l-299 -973h-447l-96 532l-100 -532h-447z" />
<glyph unicode="x" horiz-adv-x="1146" d="M-16 0l354 494l-334 479h457l112 -201l113 201h457l-332 -479l352 -494h-461l-129 209l-127 -209h-462z" />
<glyph unicode="y" horiz-adv-x="1173" d="M12 973h430l146 -574l143 574h434l-518 -1424h-411l184 451h-62z" />
<glyph unicode="z" horiz-adv-x="1011" d="M74 0v295l354 360h-344v318h846v-301l-350 -355h360v-317h-866z" />
<glyph unicode="{" horiz-adv-x="856" d="M16 356v265q119 9 165 53t46 145v217q0 127 85 210t214 83h281v-299h-129q-46 0 -72 -28.5t-26 -79.5v-181q0 -82 -50.5 -147t-136.5 -105q87 -41 137 -106t50 -147v-181q0 -51 26 -79.5t72 -28.5h129v-299h-281q-129 0 -214 83t-85 210v217q0 101 -46 145t-165 53z" />
<glyph unicode="|" horiz-adv-x="583" d="M111 -225v1554h362v-1554h-362z" />
<glyph unicode="}" horiz-adv-x="856" d="M49 -53h129q46 0 72 28.5t26 79.5v181q0 82 50 147t137 106q-86 40 -136.5 105t-50.5 147v181q0 51 -26 79.5t-72 28.5h-129v299h281q129 0 214 -83t85 -210v-217q0 -101 46 -145t165 -53v-265q-119 -9 -165 -53t-46 -145v-217q0 -127 -85 -210t-214 -83h-281v299z" />
<glyph unicode="~" horiz-adv-x="1261" d="M66 496q0 166 84 255t245 89q85 0 168 -17.5t149 -35t111 -17.5q72 0 72 70h309q0 -168 -83 -256t-247 -88q-100 0 -238.5 34.5t-180.5 34.5q-88 0 -88 -69h-301z" />
<glyph unicode="&#xa1;" horiz-adv-x="559" d="M86 16l96 480h197l96 -480v-372h-389v372zM86 629v344h385v-344h-385z" />
<glyph unicode="&#xa2;" horiz-adv-x="983" d="M59 672q0 145 80.5 257.5t214.5 166.5v233h330v-213q154 -39 252 -168l-219 -211q-56 84 -144 84q-64 0 -100.5 -42t-36.5 -107q0 -66 36.5 -109t100.5 -43q88 0 144 84l219 -211q-98 -129 -252 -168v-225h-330v246q-134 54 -214.5 167t-80.5 259z" />
<glyph unicode="&#xa3;" horiz-adv-x="1153" d="M82 0v317q130 80 176 136h-158v292h99q-44 51 -69.5 107t-25.5 135q0 66 30.5 129.5t88.5 116.5t153 85t212 32q127 0 226 -36t159 -99t90.5 -144t30.5 -176h-398q0 37 -26.5 67.5t-73.5 30.5q-45 0 -69.5 -24t-24.5 -60q0 -19 3.5 -36t14 -36.5t16 -28.5t23.5 -33.5 t21 -29.5h348v-292h-324q-40 -66 -123 -119h600v-334h-999z" />
<glyph unicode="&#xa4;" horiz-adv-x="1273" d="M55 309l158 158q-53 100 -53 221q0 109 45 201l-150 149l228 224l155 -156q87 37 199 37t199 -37l155 156l228 -224l-148 -147q45 -92 45 -203q0 -122 -55 -221l158 -158l-228 -223l-178 176q-85 -29 -176 -29t-176 29l-178 -176zM487 688q-1 -67 41.5 -111.5 t108.5 -44.5t109 44.5t42 111.5q2 68 -41.5 112.5t-109.5 43.5q-66 1 -109 -43.5t-41 -112.5z" />
<glyph unicode="&#xa5;" horiz-adv-x="1529" d="M35 1329h475l260 -467l258 467h465l-299 -485h178v-211h-307l-82 -133v-8h389v-211h-389v-281h-430v281h-391v211h391v10l-82 131h-309v211h176z" />
<glyph unicode="&#xa6;" horiz-adv-x="583" d="M111 -225v583h362v-583h-362zM111 745v584h362v-584h-362z" />
<glyph unicode="&#xa7;" horiz-adv-x="1091" d="M55 -68l215 209q118 -127 252 -127q123 0 123 64q0 23 -25 43t-65.5 34.5t-92 32.5t-106 36.5t-106 48t-92 65t-65.5 89.5t-25 120q0 170 153 254q-112 81 -112 215q0 152 125 243t348 91q126 0 245.5 -49t192.5 -132l-207 -208q-47 54 -110.5 84t-127.5 30 q-122 0 -122 -63q0 -27 32 -48.5t82.5 -39t112.5 -36.5t123.5 -47t112 -63.5t82.5 -93t32 -129.5q0 -181 -158 -266q117 -85 117 -226q0 -144 -124.5 -233.5t-342.5 -89.5q-135 0 -264 51t-203 141zM371 567q0 -25 13.5 -46.5t32 -36.5t54.5 -31t63.5 -25.5t75.5 -24.5 q117 22 117 119q0 18 -7.5 34.5t-17 29t-31 25.5t-36.5 21t-46.5 19.5t-48.5 17t-55 17.5q-114 -21 -114 -119z" />
<glyph unicode="&#xa8;" horiz-adv-x="1228" d="M174 1124v340h367v-340h-367zM690 1124v340h367v-340h-367z" />
<glyph unicode="&#xa9;" horiz-adv-x="1556" d="M57 664q0 142 50.5 267t142 218t228.5 147t300 54q161 0 297 -53t228.5 -145t144 -217.5t51.5 -268.5t-52 -269t-144.5 -217.5t-228.5 -144.5t-296 -53q-159 0 -294.5 52.5t-228.5 143.5t-145.5 216.5t-52.5 269.5zM293 659q0 -200 135.5 -333t349.5 -133q141 0 253 62.5 t172.5 169.5t60.5 237q0 201 -135.5 339t-350.5 138q-108 0 -200 -39t-153.5 -104.5t-96.5 -152.5t-35 -184zM395 666q0 158 115.5 264t280.5 106q203 0 315 -145l-172 -168q-25 35 -51.5 49t-63.5 14q-56 0 -87.5 -33.5t-31.5 -86.5t32 -87t87 -34q37 0 63.5 14t51.5 49 l172 -168q-112 -145 -315 -145q-165 0 -280.5 106.5t-115.5 264.5z" />
<glyph unicode="&#xaa;" horiz-adv-x="970" d="M43 973q0 159 103 264.5t239 105.5q158 0 223 -100v86h266v-704h-266v71q-80 -86 -223 -86q-136 0 -239 102t-103 261zM309 979q0 -56 38.5 -95.5t94.5 -39.5q58 0 97 39.5t39 95.5q0 53 -39 92t-97 39q-56 0 -94.5 -39t-38.5 -92z" />
<glyph unicode="&#xab;" d="M41 475l299 383h344l-299 -383l299 -383h-348zM553 475l299 383h344l-299 -383l299 -383h-348z" />
<glyph unicode="&#xac;" horiz-adv-x="1261" d="M96 477v324h1057v-596h-324v272h-733z" />
<glyph unicode="&#xad;" horiz-adv-x="880" d="M90 420v319h701v-319h-701z" />
<glyph unicode="&#xae;" horiz-adv-x="1556" d="M57 664q0 142 50.5 267t142 218t228.5 147t300 54q161 0 297 -53t228.5 -145t144 -217.5t51.5 -268.5t-52 -269t-144.5 -217.5t-228.5 -144.5t-296 -53q-159 0 -294.5 52.5t-228.5 143.5t-145.5 216.5t-52.5 269.5zM293 659q0 -200 135.5 -333t349.5 -133 q211 0 348.5 135.5t137.5 333.5q0 201 -135.5 339t-350.5 138q-108 0 -200 -39t-153.5 -104.5t-96.5 -152.5t-35 -184zM483 334v690h303q137 0 225.5 -68t88.5 -174q0 -68 -35 -123t-96 -88l147 -237h-280l-88 201h-17v-201h-248zM731 713h66q28 0 44.5 15.5t16.5 41.5 q0 28 -16 43.5t-45 15.5h-66v-116z" />
<glyph unicode="&#xaf;" horiz-adv-x="1228" d="M123 1153v277h737v-277h-737z" />
<glyph unicode="&#xb0;" horiz-adv-x="802" d="M43 995q0 150 101 247t257 97q157 0 258 -97.5t101 -246.5t-101 -246.5t-258 -97.5q-156 0 -257 97t-101 247zM274 995q0 -53 36 -88.5t91 -36.5q55 1 91 36.5t36 88.5q0 54 -36 89.5t-91 35.5t-91 -35.5t-36 -89.5z" />
<glyph unicode="&#xb1;" horiz-adv-x="1261" d="M102 0v324h1057v-324h-1057zM102 688v324h367v264h324v-264h366v-324h-366v-244h-324v244h-367z" />
<glyph unicode="&#xb2;" horiz-adv-x="819" d="M74 1042q3 149 91.5 228.5t252.5 79.5q142 0 226.5 -66.5t84.5 -179.5q0 -95 -47 -163.5t-152 -123.5l-81 -43l292 14v-249h-661v196l274 189q61 40 88 69t27 62q0 69 -66 69q-72 0 -75 -82h-254z" />
<glyph unicode="&#xb3;" horiz-adv-x="761" d="M29 733l233 98q26 -83 100 -83q37 0 58.5 17t21.5 48q0 32 -22.5 50t-61.5 18h-30l-72 114l129 113h-287v221h580v-190l-150 -168q82 -17 127 -71.5t45 -133.5q0 -118 -84 -183t-233 -65q-268 0 -354 215z" />
<glyph unicode="&#xb4;" horiz-adv-x="1228" d="M125 1378l577 154l78 -307l-577 -138z" />
<glyph unicode="&#xb5;" horiz-adv-x="1206" d="M96 -287v1260h424v-504q0 -44 25.5 -73t68.5 -29q80 0 80 102v504h424v-619q0 -170 -98.5 -272t-267.5 -102q-196 0 -281 135v-402h-375z" />
<glyph unicode="&#xb6;" horiz-adv-x="1392" d="M43 901q0 187 109.5 307.5t302.5 120.5h858v-307h-94v-1247h-295v1247h-140v-1247h-295v700h-34q-198 0 -305 117.5t-107 308.5z" />
<glyph unicode="&#xb7;" horiz-adv-x="587" d="M92 360v379h404v-379h-404z" />
<glyph unicode="&#xb8;" horiz-adv-x="1228" d="M119 -479l82 172q88 -37 151 -37q28 0 46 11t18 32q0 45 -78 45h-154l74 256h193l-29 -96h16q90 0 148.5 -55.5t58.5 -147.5q0 -101 -77 -165t-203 -64q-163 0 -246 49z" />
<glyph unicode="&#xb9;" horiz-adv-x="641" d="M41 1032v297h502v-790h-320v493h-182z" />
<glyph unicode="&#xba;" horiz-adv-x="884" d="M43 973q0 167 109.5 268.5t289.5 101.5t290 -101.5t110 -268.5q0 -163 -110 -263t-290 -100t-289.5 100t-109.5 263zM317 979q0 -53 36 -90t89 -37t89 37t36 90q0 50 -36 86.5t-89 36.5t-89 -36.5t-36 -86.5z" />
<glyph unicode="&#xbb;" d="M51 92l299 383l-299 383h344l299 -383l-295 -383h-348zM563 92l299 383l-299 383h344l299 -383l-295 -383h-348z" />
<glyph unicode="&#xbc;" horiz-adv-x="1814" d="M43 1032v297h502v-790h-320v493h-182zM420 0l543 1329h311l-543 -1329h-311zM1049 121v256l96 414h282l-112 -414h121v166h270v-150h63v-272h-63v-121h-270v121h-387z" />
<glyph unicode="&#xbd;" horiz-adv-x="1796" d="M43 1032v297h502v-790h-320v493h-182zM420 0l543 1329h311l-543 -1329h-311zM1071 504q3 149 91.5 228t252.5 79q142 0 226.5 -66.5t84.5 -179.5q0 -95 -46.5 -163t-151.5 -123l-82 -43l293 14v-250h-662v197l275 188q60 40 87 69t27 62q0 70 -65 70q-73 0 -76 -82h-254z " />
<glyph unicode="&#xbe;" horiz-adv-x="1939" d="M39 733l233 98q26 -83 101 -83q37 0 58.5 17t21.5 48q0 32 -22.5 50t-61.5 18h-31l-72 114l129 113h-286v221h579v-190l-149 -168q82 -17 127 -71.5t45 -133.5q0 -118 -84.5 -183t-233.5 -65q-268 0 -354 215zM539 0l542 1329h312l-543 -1329h-311zM1167 121v256l97 414 h282l-112 -414h120v166h271v-150h63v-272h-63v-121h-271v121h-387z" />
<glyph unicode="&#xbf;" horiz-adv-x="1062" d="M43 0q0 67 23.5 123.5t58.5 92t76.5 67.5t76.5 52.5t58.5 42.5t23.5 42v76h379v-76q0 -50 -23.5 -93t-58.5 -71.5t-76.5 -57t-76.5 -50.5t-58.5 -50.5t-23.5 -58.5q0 -86 106 -86q65 0 98 38t33 105h367q0 -102 -30 -186.5t-89.5 -149.5t-157 -101t-223.5 -36 q-123 0 -219 32.5t-152 87t-84 120t-28 137.5zM360 629v344h385v-344h-385z" />
<glyph unicode="&#xc0;" horiz-adv-x="1458" d="M0 0l483 1329h494l481 -1329h-430l-70 221h-460l-68 -221h-430zM399 1556l82 322l576 -158l-78 -295zM600 557h256l-127 422z" />
<glyph unicode="&#xc1;" horiz-adv-x="1458" d="M0 0l483 1329h494l481 -1329h-430l-70 221h-460l-68 -221h-430zM399 1720l576 158l82 -322l-580 -131zM600 557h256l-127 422z" />
<glyph unicode="&#xc2;" horiz-adv-x="1458" d="M0 0l483 1329h494l481 -1329h-430l-70 221h-460l-68 -221h-430zM313 1638l301 205h230l301 -205l-156 -213l-260 156l-260 -156zM600 557h256l-127 422z" />
<glyph unicode="&#xc3;" horiz-adv-x="1458" d="M0 0l483 1329h494l481 -1329h-430l-70 221h-460l-68 -221h-430zM297 1479q0 344 268 344q57 0 104 -17.5t85 -35t73 -17.5q33 0 50.5 18.5t17.5 51.5h266q0 -344 -268 -344q-57 0 -104 17.5t-85 34.5t-73 17q-68 0 -68 -69h-266zM600 557h256l-127 422z" />
<glyph unicode="&#xc4;" horiz-adv-x="1458" d="M0 0l483 1329h494l481 -1329h-430l-70 221h-460l-68 -221h-430zM279 1475v348h364v-348h-364zM600 557h256l-127 422zM815 1475v348h365v-348h-365z" />
<glyph unicode="&#xc5;" horiz-adv-x="1458" d="M0 0l483 1329h494l481 -1329h-430l-70 221h-460l-68 -221h-430zM412 1690q0 121 86.5 202.5t230.5 81.5t231 -81.5t87 -202.5q0 -122 -87 -203.5t-231 -81.5t-230.5 81.5t-86.5 203.5zM600 557h256l-127 422zM643 1690q0 -35 24.5 -59.5t61.5 -24.5t61.5 24.5t24.5 59.5 t-24.5 59.5t-61.5 24.5t-61.5 -24.5t-24.5 -59.5z" />
<glyph unicode="&#xc6;" horiz-adv-x="1984" d="M-39 0l752 1329h1185v-317h-546v-191h501v-307h-501v-197h546v-317h-956v225h-438l-117 -225h-426zM678 561h264v506z" />
<glyph unicode="&#xc7;" horiz-adv-x="1376" d="M57 666q0 141 50.5 266t141 217.5t225 146.5t294.5 54q389 0 586 -320l-381 -194q-27 55 -84.5 90t-128.5 35q-121 0 -196 -86t-75 -209t76.5 -209t204.5 -86q71 0 128.5 35t84.5 90l381 -195q-180 -293 -524 -317l-25 -80h16q90 0 148.5 -55.5t58.5 -147.5 q0 -101 -77 -165t-203 -64q-163 0 -246 49l82 172q88 -37 151 -37q28 0 46 11t18 32q0 45 -78 45h-153l71 246q-181 27 -317 124t-205.5 239.5t-69.5 312.5z" />
<glyph unicode="&#xc8;" horiz-adv-x="1157" d="M115 0v1329h956v-317h-547v-191h502v-307h-502v-197h547v-317h-956zM291 1556l82 322l575 -158l-78 -295z" />
<glyph unicode="&#xc9;" horiz-adv-x="1157" d="M115 0v1329h956v-317h-547v-191h502v-307h-502v-197h547v-317h-956zM291 1720l575 158l82 -322l-579 -131z" />
<glyph unicode="&#xca;" horiz-adv-x="1157" d="M115 0v1329h956v-317h-547v-191h502v-307h-502v-197h547v-317h-956zM205 1638l301 205h229l301 -205l-155 -213l-260 156l-261 -156z" />
<glyph unicode="&#xcb;" horiz-adv-x="1157" d="M115 0v1329h956v-317h-547v-191h502v-307h-502v-197h547v-317h-956zM170 1475v348h365v-348h-365zM707 1475v348h364v-348h-364z" />
<glyph unicode="&#xcc;" horiz-adv-x="659" d="M0 1556l82 322l575 -158l-77 -295zM115 0v1329h430v-1329h-430z" />
<glyph unicode="&#xcd;" horiz-adv-x="659" d="M0 1720l575 158l82 -322l-579 -131zM115 0v1329h430v-1329h-430z" />
<glyph unicode="&#xce;" horiz-adv-x="659" d="M-86 1638l301 205h229l301 -205l-155 -213l-260 156l-260 -156zM115 0v1329h430v-1329h-430z" />
<glyph unicode="&#xcf;" horiz-adv-x="659" d="M-121 1475v348h365v-348h-365zM115 0v1329h430v-1329h-430zM416 1475v348h364v-348h-364z" />
<glyph unicode="&#xd0;" horiz-adv-x="1546" d="M39 526v277h147v526h635q190 0 339.5 -77.5t238 -230t88.5 -357.5q0 -188 -86 -340t-236.5 -238t-335.5 -86h-643v526h-147zM616 369h162q128 0 202.5 78.5t74.5 218.5q0 144 -73.5 219.5t-203.5 75.5h-162v-158h242v-277h-242v-157z" />
<glyph unicode="&#xd1;" horiz-adv-x="1523" d="M115 0v1329h448l453 -706v706h393v-1329h-395l-506 784v-784h-393zM330 1479q0 344 268 344q57 0 104 -17.5t85 -35t73 -17.5q33 0 50.5 18.5t17.5 51.5h266q0 -344 -268 -344q-57 0 -104 17.5t-85 34.5t-73 17q-68 0 -68 -69h-266z" />
<glyph unicode="&#xd2;" horiz-adv-x="1556" d="M57 664q0 142 50.5 267t142 218t228.5 147t300 54q161 0 297 -53t228.5 -145t144 -217.5t51.5 -268.5t-52 -269t-144.5 -217.5t-228.5 -144.5t-296 -53q-159 0 -294.5 52.5t-228.5 143.5t-145.5 216.5t-52.5 269.5zM449 1556l81 322l576 -158l-78 -295zM489 662 q0 -126 78.5 -208.5t210.5 -82.5t210.5 83.5t78.5 209.5q0 127 -78 212t-211 85t-211 -86t-78 -213z" />
<glyph unicode="&#xd3;" horiz-adv-x="1556" d="M57 664q0 142 50.5 267t142 218t228.5 147t300 54q161 0 297 -53t228.5 -145t144 -217.5t51.5 -268.5t-52 -269t-144.5 -217.5t-228.5 -144.5t-296 -53q-159 0 -294.5 52.5t-228.5 143.5t-145.5 216.5t-52.5 269.5zM449 1720l575 158l82 -322l-580 -131zM489 662 q0 -126 78.5 -208.5t210.5 -82.5t210.5 83.5t78.5 209.5q0 127 -78 212t-211 85t-211 -86t-78 -213z" />
<glyph unicode="&#xd4;" horiz-adv-x="1556" d="M57 664q0 142 50.5 267t142 218t228.5 147t300 54q161 0 297 -53t228.5 -145t144 -217.5t51.5 -268.5t-52 -269t-144.5 -217.5t-228.5 -144.5t-296 -53q-159 0 -294.5 52.5t-228.5 143.5t-145.5 216.5t-52.5 269.5zM362 1638l302 205h229l301 -205l-156 -213l-260 156 l-260 -156zM489 662q0 -126 78.5 -208.5t210.5 -82.5t210.5 83.5t78.5 209.5q0 127 -78 212t-211 85t-211 -86t-78 -213z" />
<glyph unicode="&#xd5;" horiz-adv-x="1556" d="M57 664q0 142 50.5 267t142 218t228.5 147t300 54q161 0 297 -53t228.5 -145t144 -217.5t51.5 -268.5t-52 -269t-144.5 -217.5t-228.5 -144.5t-296 -53q-159 0 -294.5 52.5t-228.5 143.5t-145.5 216.5t-52.5 269.5zM346 1479q0 344 268 344q57 0 104.5 -17.5t85.5 -35 t73 -17.5q67 0 67 70h266q0 -344 -268 -344q-57 0 -104 17.5t-85 34.5t-73 17q-68 0 -68 -69h-266zM489 662q0 -126 78.5 -208.5t210.5 -82.5t210.5 83.5t78.5 209.5q0 127 -78 212t-211 85t-211 -86t-78 -213z" />
<glyph unicode="&#xd6;" horiz-adv-x="1556" d="M57 664q0 142 50.5 267t142 218t228.5 147t300 54q161 0 297 -53t228.5 -145t144 -217.5t51.5 -268.5t-52 -269t-144.5 -217.5t-228.5 -144.5t-296 -53q-159 0 -294.5 52.5t-228.5 143.5t-145.5 216.5t-52.5 269.5zM328 1475v348h364v-348h-364zM489 662 q0 -126 78.5 -208.5t210.5 -82.5t210.5 83.5t78.5 209.5q0 127 -78 212t-211 85t-211 -86t-78 -213zM864 1475v348h365v-348h-365z" />
<glyph unicode="&#xd7;" horiz-adv-x="1261" d="M125 354l283 283l-283 283l227 219l279 -279l278 279l228 -219l-283 -283l283 -283l-226 -221l-280 281l-281 -281z" />
<glyph unicode="&#xd8;" horiz-adv-x="1570" d="M20 147l148 148q-102 161 -102 369q0 142 50.5 267t141.5 218t228 147t300 54q200 0 357 -80l157 157l248 -249l-143 -144q102 -164 102 -368q0 -143 -52 -269t-144.5 -217.5t-228.5 -144.5t-296 -53q-196 0 -356 77l-162 -161zM498 662q0 -25 2 -35l331 331q-21 3 -45 3 q-133 0 -210.5 -86t-77.5 -213zM743 373q14 -2 43 -2q132 0 210.5 83.5t78.5 209.5q0 26 -2 38z" />
<glyph unicode="&#xd9;" horiz-adv-x="1507" d="M98 629v700h430v-674q0 -150 55 -217t171 -67t170.5 67t54.5 217v674h430v-700q0 -316 -174 -481.5t-481 -165.5t-481.5 165.5t-174.5 481.5zM424 1556l82 322l575 -158l-77 -295z" />
<glyph unicode="&#xda;" horiz-adv-x="1507" d="M98 629v700h430v-674q0 -150 55 -217t171 -67t170.5 67t54.5 217v674h430v-700q0 -316 -174 -481.5t-481 -165.5t-481.5 165.5t-174.5 481.5zM424 1720l575 158l82 -322l-579 -131z" />
<glyph unicode="&#xdb;" horiz-adv-x="1507" d="M98 629v700h430v-674q0 -150 55 -217t171 -67t170.5 67t54.5 217v674h430v-700q0 -316 -174 -481.5t-481 -165.5t-481.5 165.5t-174.5 481.5zM338 1638l301 205h229l301 -205l-155 -213l-260 156l-260 -156z" />
<glyph unicode="&#xdc;" horiz-adv-x="1507" d="M98 629v700h430v-674q0 -150 55 -217t171 -67t170.5 67t54.5 217v674h430v-700q0 -316 -174 -481.5t-481 -165.5t-481.5 165.5t-174.5 481.5zM303 1475v348h365v-348h-365zM840 1475v348h364v-348h-364z" />
<glyph unicode="&#xdd;" horiz-adv-x="1452" d="M-6 1329h475l260 -467l258 467h465l-510 -829v-500h-430v502zM393 1720l576 158l82 -322l-580 -131z" />
<glyph unicode="&#xde;" horiz-adv-x="1302" d="M115 0v1329h430v-166h137q266 0 416.5 -129t150.5 -360q0 -223 -150 -364.5t-409 -141.5h-145v-168h-430zM545 500h114q86 0 133.5 43.5t47.5 122.5q0 82 -46.5 123.5t-134.5 41.5h-114v-331z" />
<glyph unicode="&#xdf;" horiz-adv-x="1253" d="M96 0v850q0 89 18.5 168.5t60.5 150.5t104 122.5t154.5 81.5t207.5 30q125 0 222.5 -32t156.5 -87t89 -124t30 -148q0 -63 -17 -115.5t-45 -85.5t-53.5 -53t-52.5 -33q99 -31 165 -113.5t66 -216.5q0 -186 -135 -290.5t-395 -104.5h-70v307h76q60 0 100.5 27.5t40.5 87.5 q0 61 -40.5 88t-100.5 27h-76v307h53q47 0 80 30t33 76q0 53 -35.5 84t-95.5 31q-77 0 -117.5 -51.5t-40.5 -136.5v-877h-383z" />
<glyph unicode="&#xe0;" d="M51 487q0 212 127 358t318 146q103 0 170 -33t108 -104v119h377v-973h-377v125q-77 -143 -278 -143q-191 0 -318 146.5t-127 358.5zM276 1225l78 307l578 -154l-78 -291zM465 487q0 -73 40 -119t105 -46t105.5 46t40.5 119t-40.5 118.5t-105.5 45.5t-105 -45.5 t-40 -118.5z" />
<glyph unicode="&#xe1;" d="M51 487q0 212 127 358t318 146q103 0 170 -33t108 -104v119h377v-973h-377v125q-77 -143 -278 -143q-191 0 -318 146.5t-127 358.5zM279 1378l577 154l78 -307l-578 -138zM465 487q0 -73 40 -119t105 -46t105.5 46t40.5 119t-40.5 118.5t-105.5 45.5t-105 -45.5 t-40 -118.5z" />
<glyph unicode="&#xe2;" d="M51 487q0 212 127 358t318 146q103 0 170 -33t108 -104v119h377v-973h-377v125q-77 -143 -278 -143q-191 0 -318 146.5t-127 358.5zM190 1300l302 205h229l301 -205l-156 -213l-260 162l-260 -162zM465 487q0 -73 40 -119t105 -46t105.5 46t40.5 119t-40.5 118.5 t-105.5 45.5t-105 -45.5t-40 -118.5z" />
<glyph unicode="&#xe3;" d="M51 487q0 212 127 358t318 146q103 0 170 -33t108 -104v119h377v-973h-377v125q-77 -143 -278 -143q-191 0 -318 146.5t-127 358.5zM174 1116q0 344 268 344q57 0 104.5 -20t85.5 -40t73 -20q38 0 57.5 21.5t19.5 58.5h256q0 -344 -268 -344q-57 0 -104 20t-85 40t-73 20 q-38 0 -58 -21.5t-20 -58.5h-256zM465 487q0 -73 40 -119t105 -46t105.5 46t40.5 119t-40.5 118.5t-105.5 45.5t-105 -45.5t-40 -118.5z" />
<glyph unicode="&#xe4;" d="M51 487q0 212 127 358t318 146q103 0 170 -33t108 -104v119h377v-973h-377v125q-77 -143 -278 -143q-191 0 -318 146.5t-127 358.5zM166 1124v340h366v-340h-366zM465 487q0 -73 40 -119t105 -46t105.5 46t40.5 119t-40.5 118.5t-105.5 45.5t-105 -45.5t-40 -118.5z M682 1124v340h367v-340h-367z" />
<glyph unicode="&#xe5;" d="M51 487q0 212 127 358t318 146q103 0 170 -33t108 -104v119h377v-973h-377v125q-77 -143 -278 -143q-191 0 -318 146.5t-127 358.5zM322 1331q0 109 80 185.5t204 76.5t204.5 -76.5t80.5 -185.5q0 -110 -80.5 -186t-204.5 -76t-204 75.5t-80 186.5zM465 487 q0 -73 40 -119t105 -46t105.5 46t40.5 119t-40.5 118.5t-105.5 45.5t-105 -45.5t-40 -118.5zM524 1331q0 -33 23 -56.5t59 -23.5t59 23.5t23 56.5t-23 56.5t-59 23.5t-59 -23.5t-23 -56.5z" />
<glyph unicode="&#xe6;" horiz-adv-x="1888" d="M51 487q0 212 127 358t318 146q103 0 170 -33t108 -104v119h377v-74q106 92 260 92q109 0 193 -40.5t133.5 -111.5t74.5 -159.5t25 -192.5q0 -40 -4 -94h-655q18 -62 73.5 -92.5t130.5 -30.5q131 0 207 76l205 -188q-143 -176 -391 -176q-154 0 -252 79v-61h-377v125 q-77 -143 -278 -143q-191 0 -318 146.5t-127 358.5zM465 487q0 -73 40 -119t105 -46t105.5 46t40.5 119t-40.5 118.5t-105.5 45.5t-105 -45.5t-40 -118.5zM1176 598h305q-3 60 -47.5 97.5t-100.5 37.5q-57 0 -105.5 -37.5t-51.5 -97.5z" />
<glyph unicode="&#xe7;" horiz-adv-x="1034" d="M49 487q0 142 72 258.5t194.5 181t268.5 64.5q277 0 428 -198l-240 -234q-60 92 -158 92q-71 0 -111 -46t-40 -118t40 -118.5t111 -46.5q98 0 158 92l240 -234q-126 -164 -330 -192l-25 -84h17q90 0 148.5 -55.5t58.5 -147.5q0 -101 -77.5 -165t-203.5 -64 q-163 0 -246 49l82 172q88 -37 152 -37q28 0 45.5 11t17.5 32q0 45 -78 45h-153l69 246q-191 30 -315.5 167t-124.5 330z" />
<glyph unicode="&#xe8;" horiz-adv-x="1130" d="M49 487q0 215 143 359.5t373 144.5q234 0 375 -138.5t141 -365.5q0 -40 -4 -94h-641q36 -123 191 -123q131 0 207 76l204 -188q-156 -176 -432 -176q-258 0 -407.5 143t-149.5 362zM231 1225l78 307l578 -154l-78 -291zM434 588h291q-3 69 -46.5 107t-100.5 38t-99 -38 t-45 -107z" />
<glyph unicode="&#xe9;" horiz-adv-x="1130" d="M49 487q0 215 143 359.5t373 144.5q234 0 375 -138.5t141 -365.5q0 -40 -4 -94h-641q36 -123 191 -123q131 0 207 76l204 -188q-156 -176 -432 -176q-258 0 -407.5 143t-149.5 362zM231 1378l578 154l78 -307l-578 -138zM434 588h291q-3 69 -46.5 107t-100.5 38t-99 -38 t-45 -107z" />
<glyph unicode="&#xea;" horiz-adv-x="1130" d="M49 487q0 215 143 359.5t373 144.5q234 0 375 -138.5t141 -365.5q0 -40 -4 -94h-641q36 -123 191 -123q131 0 207 76l204 -188q-156 -176 -432 -176q-258 0 -407.5 143t-149.5 362zM145 1300l301 205h230l301 -205l-156 -213l-260 162l-260 -162zM434 588h291 q-3 69 -46.5 107t-100.5 38t-99 -38t-45 -107z" />
<glyph unicode="&#xeb;" horiz-adv-x="1130" d="M49 487q0 215 143 359.5t373 144.5q234 0 375 -138.5t141 -365.5q0 -40 -4 -94h-641q36 -123 191 -123q131 0 207 76l204 -188q-156 -176 -432 -176q-258 0 -407.5 143t-149.5 362zM121 1124v340h366v-340h-366zM434 588h291q-3 69 -46.5 107t-100.5 38t-99 -38t-45 -107 zM637 1124v340h367v-340h-367z" />
<glyph unicode="&#xec;" horiz-adv-x="616" d="M-20 1225l77 307l578 -154l-78 -291zM96 0v973h424v-973h-424z" />
<glyph unicode="&#xed;" horiz-adv-x="616" d="M-20 1378l577 154l78 -307l-578 -138zM96 0v973h424v-973h-424z" />
<glyph unicode="&#xee;" horiz-adv-x="616" d="M-106 1300l301 205h229l301 -205l-156 -213l-260 162l-260 -162zM96 0v973h424v-973h-424z" />
<glyph unicode="&#xef;" horiz-adv-x="616" d="M-131 1124v340h367v-340h-367zM96 0v973h424v-973h-424zM385 1124v340h367v-340h-367z" />
<glyph unicode="&#xf0;" horiz-adv-x="1179" d="M51 455q0 199 116.5 329.5t297.5 130.5q218 0 278 -131q0 73 -31.5 126t-90.5 83.5t-134.5 45t-171.5 14.5v329q129 0 252 -22l60 106l331 -161l-59 -105q217 -201 217 -612q0 -94 -18 -179.5t-59.5 -164.5t-103 -136.5t-154.5 -91.5t-208 -34q-116 0 -215 37.5 t-165.5 101.5t-104 150.5t-37.5 183.5zM444 453q0 -69 38.5 -112.5t101.5 -43.5t101 43.5t38 112.5q0 67 -38.5 111t-100.5 44t-101 -44t-39 -111z" />
<glyph unicode="&#xf1;" horiz-adv-x="1218" d="M96 0v973h377v-117q85 135 281 135q173 0 274.5 -102.5t101.5 -272.5v-616h-423v502q0 50 -24.5 76t-66.5 26q-43 0 -69.5 -29t-26.5 -73v-502h-424zM188 1116q0 344 269 344q57 0 104 -20t85 -40t73 -20q38 0 58 21.5t20 58.5h256q0 -344 -269 -344q-57 0 -104 20 t-85 40t-73 20q-38 0 -58 -21.5t-20 -58.5h-256z" />
<glyph unicode="&#xf2;" horiz-adv-x="1216" d="M49 487q0 105 37.5 196.5t106.5 160t176 108t239 39.5t239 -39.5t176 -108t106.5 -160t37.5 -196.5t-37.5 -196.5t-106.5 -160.5t-176 -108.5t-239 -39.5t-239 39.5t-176 108.5t-106.5 160.5t-37.5 196.5zM279 1225l77 307l578 -154l-78 -291zM463 487q0 -73 40 -119 t105 -46t105.5 46t40.5 119t-40.5 118.5t-105.5 45.5t-105 -45.5t-40 -118.5z" />
<glyph unicode="&#xf3;" horiz-adv-x="1216" d="M49 487q0 105 37.5 196.5t106.5 160t176 108t239 39.5t239 -39.5t176 -108t106.5 -160t37.5 -196.5t-37.5 -196.5t-106.5 -160.5t-176 -108.5t-239 -39.5t-239 39.5t-176 108.5t-106.5 160.5t-37.5 196.5zM279 1378l577 154l78 -307l-578 -138zM463 487q0 -73 40 -119 t105 -46t105.5 46t40.5 119t-40.5 118.5t-105.5 45.5t-105 -45.5t-40 -118.5z" />
<glyph unicode="&#xf4;" horiz-adv-x="1216" d="M49 487q0 105 37.5 196.5t106.5 160t176 108t239 39.5t239 -39.5t176 -108t106.5 -160t37.5 -196.5t-37.5 -196.5t-106.5 -160.5t-176 -108.5t-239 -39.5t-239 39.5t-176 108.5t-106.5 160.5t-37.5 196.5zM193 1300l301 205h229l301 -205l-156 -213l-260 162l-260 -162z M463 487q0 -73 40 -119t105 -46t105.5 46t40.5 119t-40.5 118.5t-105.5 45.5t-105 -45.5t-40 -118.5z" />
<glyph unicode="&#xf5;" horiz-adv-x="1216" d="M49 487q0 105 37.5 196.5t106.5 160t176 108t239 39.5t239 -39.5t176 -108t106.5 -160t37.5 -196.5t-37.5 -196.5t-106.5 -160.5t-176 -108.5t-239 -39.5t-239 39.5t-176 108.5t-106.5 160.5t-37.5 196.5zM176 1116q0 344 268 344q57 0 104.5 -20t85.5 -40t73 -20 q38 0 57.5 21.5t19.5 58.5h256q0 -344 -268 -344q-57 0 -104 20t-85 40t-73 20q-38 0 -58 -21.5t-20 -58.5h-256zM463 487q0 -73 40 -119t105 -46t105.5 46t40.5 119t-40.5 118.5t-105.5 45.5t-105 -45.5t-40 -118.5z" />
<glyph unicode="&#xf6;" horiz-adv-x="1216" d="M49 487q0 105 37.5 196.5t106.5 160t176 108t239 39.5t239 -39.5t176 -108t106.5 -160t37.5 -196.5t-37.5 -196.5t-106.5 -160.5t-176 -108.5t-239 -39.5t-239 39.5t-176 108.5t-106.5 160.5t-37.5 196.5zM168 1124v340h367v-340h-367zM463 487q0 -73 40 -119t105 -46 t105.5 46t40.5 119t-40.5 118.5t-105.5 45.5t-105 -45.5t-40 -118.5zM684 1124v340h367v-340h-367z" />
<glyph unicode="&#xf7;" horiz-adv-x="1261" d="M102 492v323h1057v-323h-1057zM426 229q0 85 57 141t148 56t148 -56t57 -141q0 -84 -57 -140t-148 -56t-148 56t-57 140zM426 1077q0 85 57 141t148 56t148 -56t57 -141q0 -84 -57 -140t-148 -56t-148 56t-57 140z" />
<glyph unicode="&#xf8;" horiz-adv-x="1228" d="M25 109l106 106q-76 121 -76 272q0 105 37.5 196.5t106.5 160t176 108t239 39.5q135 0 250 -43l131 131l209 -211l-106 -106q76 -124 76 -275q0 -105 -37.5 -196.5t-107 -160.5t-176.5 -108.5t-239 -39.5q-140 0 -252 45l-129 -129zM469 487q0 -73 40 -119t105 -46 t105.5 46t40.5 119t-40.5 118.5t-105.5 45.5t-105 -45.5t-40 -118.5z" />
<glyph unicode="&#xf9;" horiz-adv-x="1206" d="M88 354v619h424v-504q0 -102 80 -102q43 0 68.5 29t25.5 73v504h424v-973h-375v115q-85 -135 -280 -135q-169 0 -268 102t-99 272zM274 1225l78 307l578 -154l-78 -291z" />
<glyph unicode="&#xfa;" horiz-adv-x="1206" d="M88 354v619h424v-504q0 -102 80 -102q43 0 68.5 29t25.5 73v504h424v-973h-375v115q-85 -135 -280 -135q-169 0 -268 102t-99 272zM274 1378l578 154l78 -307l-578 -138z" />
<glyph unicode="&#xfb;" horiz-adv-x="1206" d="M88 354v619h424v-504q0 -102 80 -102q43 0 68.5 29t25.5 73v504h424v-973h-375v115q-85 -135 -280 -135q-169 0 -268 102t-99 272zM188 1300l301 205h230l301 -205l-156 -213l-260 162l-260 -162z" />
<glyph unicode="&#xfc;" horiz-adv-x="1206" d="M88 354v619h424v-504q0 -102 80 -102q43 0 68.5 29t25.5 73v504h424v-973h-375v115q-85 -135 -280 -135q-169 0 -268 102t-99 272zM164 1124v340h366v-340h-366zM680 1124v340h367v-340h-367z" />
<glyph unicode="&#xfd;" horiz-adv-x="1173" d="M12 973h430l146 -574l143 574h434l-518 -1424h-411l184 451h-62zM260 1378l578 154l77 -307l-577 -138z" />
<glyph unicode="&#xfe;" d="M96 -451v1833h377v-508q77 115 279 115q126 0 228.5 -68t159 -184t56.5 -254q0 -212 -126.5 -357.5t-317.5 -145.5q-193 0 -279 116v-547h-377zM492 483q0 -73 40 -118.5t105 -45.5t105 45.5t40 118.5q0 74 -40.5 120t-104.5 46t-104.5 -46t-40.5 -120z" />
<glyph unicode="&#xff;" horiz-adv-x="1173" d="M12 973h430l146 -574l143 574h434l-518 -1424h-411l184 451h-62zM150 1124v340h366v-340h-366zM666 1124v340h366v-340h-366z" />
<glyph unicode="&#x152;" horiz-adv-x="2123" d="M57 664q0 142 50.5 267t142 218t228.5 147t300 54q159 0 303 -56v35h957v-317h-547v-191h502v-307h-502v-197h547v-317h-957v37q-141 -55 -303 -55q-159 0 -294.5 52.5t-228.5 143.5t-145.5 216.5t-52.5 269.5zM489 662q0 -126 78.5 -208.5t210.5 -82.5t210.5 83.5 t78.5 209.5q0 127 -78 212t-211 85t-211 -86t-78 -213z" />
<glyph unicode="&#x153;" horiz-adv-x="1859" d="M49 487q0 105 37.5 196.5t106.5 160t176 108t239 39.5q215 0 361 -102q139 102 325 102q234 0 375 -138.5t141 -365.5q0 -40 -4 -94h-641q36 -123 191 -123q131 0 207 76l204 -188q-156 -176 -432 -176q-219 0 -362 106q-143 -106 -365 -106q-132 0 -239 39.5t-176 108.5 t-106.5 160.5t-37.5 196.5zM463 487q0 -73 40 -119t105 -46t105.5 46t40.5 119t-40.5 118.5t-105.5 45.5t-105 -45.5t-40 -118.5zM1163 588h291q-3 69 -46.5 107t-100.5 38t-99 -38t-45 -107z" />
<glyph unicode="&#x178;" horiz-adv-x="1452" d="M-6 1329h475l260 -467l258 467h465l-510 -829v-500h-430v502zM272 1475v348h365v-348h-365zM809 1475v348h365v-348h-365z" />
<glyph unicode="&#x2c6;" horiz-adv-x="1228" d="M123 1300l301 205h229l301 -205l-155 -213l-260 162l-260 -162z" />
<glyph unicode="&#x2dc;" horiz-adv-x="1228" d="M123 1116q0 344 268 344q57 0 104 -20t85 -40t73 -20q38 0 58 21.5t20 58.5h256q0 -344 -268 -344q-57 0 -104 20t-85 40t-73 20q-38 0 -58 -21.5t-20 -58.5h-256z" />
<glyph unicode="&#x2000;" horiz-adv-x="987" />
<glyph unicode="&#x2001;" horiz-adv-x="1974" />
<glyph unicode="&#x2002;" horiz-adv-x="987" />
<glyph unicode="&#x2003;" horiz-adv-x="1974" />
<glyph unicode="&#x2004;" horiz-adv-x="658" />
<glyph unicode="&#x2005;" horiz-adv-x="493" />
<glyph unicode="&#x2006;" horiz-adv-x="329" />
<glyph unicode="&#x2007;" horiz-adv-x="329" />
<glyph unicode="&#x2008;" horiz-adv-x="246" />
<glyph unicode="&#x2009;" horiz-adv-x="394" />
<glyph unicode="&#x200a;" horiz-adv-x="109" />
<glyph unicode="&#x2010;" horiz-adv-x="880" d="M90 420v319h701v-319h-701z" />
<glyph unicode="&#x2011;" horiz-adv-x="880" d="M90 420v319h701v-319h-701z" />
<glyph unicode="&#x2012;" horiz-adv-x="880" d="M90 420v319h701v-319h-701z" />
<glyph unicode="&#x2013;" horiz-adv-x="1351" d="M90 420v319h1172v-319h-1172z" />
<glyph unicode="&#x2014;" horiz-adv-x="1925" d="M90 420v319h1745v-319h-1745z" />
<glyph unicode="&#x2018;" horiz-adv-x="509" d="M39 858l137 510h277l-52 -510h-362z" />
<glyph unicode="&#x2019;" horiz-adv-x="499" d="M66 840l51 510h362l-137 -510h-276z" />
<glyph unicode="&#x201a;" horiz-adv-x="524" d="M55 -131l51 510h363l-137 -510h-277z" />
<glyph unicode="&#x201c;" horiz-adv-x="956" d="M41 840l137 510h277l-52 -510h-362zM483 840l138 510h276l-51 -510h-363z" />
<glyph unicode="&#x201d;" horiz-adv-x="942" d="M66 840l51 510h362l-137 -510h-276zM508 840l51 510h363l-138 -510h-276z" />
<glyph unicode="&#x201e;" horiz-adv-x="966" d="M55 -131l51 510h363l-137 -510h-277zM498 -131l51 510h362l-137 -510h-276z" />
<glyph unicode="&#x2022;" horiz-adv-x="907" d="M137 309v598h633v-598h-633z" />
<glyph unicode="&#x2026;" horiz-adv-x="1681" d="M86 0v379h403v-379h-403zM639 0v379h403v-379h-403zM1192 0v379h403v-379h-403z" />
<glyph unicode="&#x202f;" horiz-adv-x="394" />
<glyph unicode="&#x2039;" horiz-adv-x="735" d="M41 475l299 383h344l-299 -383l299 -383h-348z" />
<glyph unicode="&#x203a;" horiz-adv-x="735" d="M51 92l299 383l-299 383h344l299 -383l-295 -383h-348z" />
<glyph unicode="&#x205f;" horiz-adv-x="493" />
<glyph unicode="&#x20ac;" horiz-adv-x="1320" d="M47 512l74 293h72q46 240 231 392.5t459 152.5q207 0 370 -82l-172 -357q-102 50 -204 50q-185 0 -248 -156h434l-74 -293h-354q31 -66 92 -103.5t150 -37.5q104 0 204 49l172 -357q-161 -81 -370 -81q-271 0 -454 148t-232 382h-150z" />
<glyph unicode="&#x2122;" horiz-adv-x="1765" d="M51 1044v287h672v-287h-176v-389h-318v389h-178zM811 655v676h324l102 -358l102 358h324v-676h-242v340h-4l-102 -340h-156l-102 340h-4v-340h-242z" />
<glyph unicode="&#x25fc;" horiz-adv-x="972" d="M0 0v973h973v-973h-973z" />
</font>
</defs>
</svg>
